<?xml version="1.0" standalone="no"?>
<!DOCTYPE svg PUBLIC "-//W3C//DTD SVG 1.1//EN" "http://www.w3.org/Graphics/SVG/1.1/DTD/svg11.dtd" >
<svg xmlns="http://www.w3.org/2000/svg">
<metadata>Generated by IcoMoon</metadata>
<defs>
<font id="icomoon" horiz-adv-x="1024">
<font-face units-per-em="1024" ascent="960" descent="-64" />
<missing-glyph horiz-adv-x="1024" />
<glyph unicode="&#x20;" horiz-adv-x="512" d="" />
<glyph unicode="&#xe900;" glyph-name="01" horiz-adv-x="1265" d="M342.53 935.353c-47.276 0-90.001-7.588-128.274-22.639l-0.068-0.027c-38.046-14.534-70.763-37.821-98.21-69.986-27.399-32.108-48.802-73.666-64.015-124.946-14.743-51.179-22.198-113.513-22.198-187.151v-162.132c0-58.711 4.82-110.434 14.386-155.234 10.018-44.85 24.117-83.14 42.189-114.989 18.553-31.92 40.458-58.077 65.667-78.598 25.696-20.12 54.614-35.12 86.807-44.997 32.313-9.474 67.313-14.241 105.040-14.241 47.261 0 89.973 7.584 128.236 22.624 38.094 15.414 70.843 39.16 98.306 71.34 27.394 32.539 48.577 74.528 63.351 126.237 14.753 51.637 22.21 114.209 22.21 187.859v162.132c0 58.707-5.040 110.19-15.036 154.52l-0.020 0.083c-9.58 44.859-23.46 82.908-41.516 114.289l-0.021 0.038c-18.095 31.88-39.957 57.545-65.533 77.153l-0.111 0.085c-25.239 20.106-53.917 34.885-86.103 44.327l-0.027 0.008c-31.86 9.472-66.863 14.247-105.059 14.247zM208.779 926.741c40.246 15.822 84.864 23.671 133.751 23.671 39.448 0 75.915-4.931 109.347-14.87 33.958-9.964 64.372-25.61 91.174-46.949 27.335-20.97 50.449-48.225 69.399-81.606 0.005-0.008 0.008-0.014 0.012-0.021l-6.549-3.717 6.526 3.756c0.003-0.006 0.008-0.012 0.011-0.018 18.994-33.016 33.342-72.594 43.171-118.593-0.003 0.014-0.006 0.027-0.009 0.041l-7.346-1.656 7.364 1.574c-0.003 0.014-0.006 0.029-0.009 0.042 10.293-45.661 15.396-98.281 15.396-157.791v-162.132c0-74.586-7.543-138.632-22.79-191.995-15.223-53.278-37.268-97.31-66.334-131.826l-0.032-0.038c-28.999-33.983-63.736-59.199-104.154-75.547l-0.068-0.027c-40.255-15.831-84.884-23.685-133.784-23.685-39.020 0-75.476 4.933-109.326 14.863l-0.089 0.027c-33.944 10.409-64.554 26.273-91.773 47.593l-0.109 0.086c-26.818 21.819-49.887 49.459-69.258 82.795l-0.038 0.066c-18.973 33.429-33.543 73.205-43.815 119.207l-0.015 0.069c-9.841 46.075-14.725 98.9-14.725 158.411v162.132c0 74.582 7.542 138.415 22.794 191.348l0.016 0.057c15.669 52.825 37.94 96.405 67.006 130.467 29.015 34.002 63.787 58.798 104.256 74.265zM208.779 926.741c-0.012-0.004-0.023-0.009-0.035-0.013l2.756-7.007-2.686 7.034c-0.012-0.004-0.024-0.009-0.035-0.013zM1228.642 939.824h28.696v-981.235h-190.426v758.802l-232.279-76.764v157.327l394.010 141.87zM1231.27 924.765l-381.579-137.395v-125.908l232.279 76.765v-764.58h160.309v951.118h-11.010zM277.618 798.072c19.263 9.853 40.958 14.692 64.911 14.692 19.313 0 37.2-2.991 53.578-9.074 16.523-6.138 31.128-15.809 43.779-28.914 12.747-12.762 23.157-29.318 31.377-49.411 8.233-20.125 14.312-44.342 18.343-72.528 4.486-27.841 6.703-60.443 6.703-97.75v-210.441c0-46.193-3.326-85.972-10.068-119.249-6.286-32.76-15.794-59.924-28.75-81.209l-0.038-0.063c-12.958-20.825-29.13-36.409-48.595-46.386-18.89-9.909-40.632-14.74-65.004-14.74-19.313 0-37.2 2.991-53.578 9.074l-0.176 0.065c-16.462 6.585-31.024 16.467-43.651 29.56l-0.095 0.099-0.092 0.101c-12.148 13.55-22.481 30.634-31.11 51.069l-0.056 0.131c-8.203 20.507-14.5 44.902-18.973 73.088l-0.018 0.114c-4.034 28.238-6.031 61.035-6.031 98.345v210.441c0 46.182 3.105 85.519 9.403 117.908l0.015 0.078c6.73 32.75 16.473 59.514 29.479 79.953 12.975 20.39 29.169 35.528 48.648 45.045zM342.53 797.707c-21.903 0-41.216-4.415-58.112-13.070l-0.131-0.068c-16.667-8.13-30.895-21.215-42.61-39.626-11.693-18.376-20.92-43.216-27.425-74.859-6.049-31.134-9.118-69.432-9.118-114.997v-210.441c0-36.781 1.97-68.817 5.871-96.155 4.344-27.347 10.386-50.558 18.048-69.731 8.108-19.186 17.587-34.694 28.33-46.705 11.151-11.54 23.882-20.146 38.225-25.898 14.482-5.365 30.536-8.099 48.245-8.099 22.374 0 41.65 4.427 58.044 13.035l0.068 0.035c16.69 8.549 30.944 22.067 42.683 40.924 11.734 19.29 20.747 44.603 26.811 76.219l0.015 0.078c6.489 32.009 9.776 70.745 9.776 116.298v210.441c0 36.783-2.191 68.569-6.522 95.419l-0.021 0.134c-3.911 27.374-9.739 50.34-17.381 69.024-7.653 18.706-17.081 33.458-28.136 44.512l-0.096 0.096c-11.162 11.574-23.892 19.976-38.23 25.302-14.505 5.387-30.589 8.132-48.334 8.132z" />
<glyph unicode="&#xe901;" glyph-name="02" horiz-adv-x="1489" d="M578.105 37.424l5.902-5.036 0.033 0.039-5.935 4.997zM473.788-38.257l2.839-7.221 0.070 0.029-2.909 7.191zM228.333-47.121l-2.275-7.418 0.092-0.026 2.183 7.444zM136.288 0.607l-4.897-6.020 0.113-0.088 4.784 6.108zM66.742 83.788l-6.747-3.829 0.040-0.068 6.707 3.897zM22.424 204.47l-7.587-1.62 0.016-0.071 7.571 1.691zM30.606 728.106l-7.438 2.206-0.017-0.059 7.454-2.147zM202.425 934.015l2.768-7.247 0.071 0.028-2.839 7.22zM447.879 942.879l-2.211-7.436 0.028-0.008 2.183 7.444zM539.243 895.833l-4.835-6.069 0.113-0.088 4.721 6.157zM608.788 814.015l-6.748-3.829 0.023-0.039 6.724 3.869zM652.425 694.014l-7.587-1.62 0.019-0.085 7.568 1.705zM481.288 657.878l-7.68-1.097 0.022-0.138 7.658 1.235zM432.196 779.242l-5.584-5.385 0.099-0.099 5.485 5.485zM274.015 801.742l3.402-6.974 0.135 0.070-3.537 6.904zM197.652 678.333l-7.599 1.561-0.017-0.081 7.616-1.48zM194.242 241.289l-7.68-1.098 0.019-0.118 7.661 1.216zM213.333 167.652l-7.204-2.883 0.057-0.135 7.146 3.018zM244.015 117.197l-5.775-5.179 0.093-0.104 0.098-0.102 5.584 5.385zM286.287 88.56l-2.881-7.205 0.182-0.067 2.7 7.272zM402.198 94.016l-3.537 6.904-0.070-0.036 3.607-6.869zM449.243 139.016l6.586-4.099 0.040 0.065-6.627 4.034zM477.879 220.152l-7.604 1.541-0.016-0.081 7.619-1.46zM660.348 533.107v-167.045h15.515v167.045h-15.515zM660.348 366.061c0-75.882-7.683-140.35-22.883-193.552l14.918-4.262c15.709 54.981 23.481 120.967 23.481 197.814h-15.515zM637.465 172.51c-15.225-53.29-37.058-96.559-65.292-130.088l11.868-9.995c29.946 35.562 52.66 80.929 68.343 135.821l-14.918 4.262zM572.205 42.46c-28.304-33.17-62.059-57.643-101.326-73.526l5.818-14.383c41.643 16.843 77.433 42.823 107.311 77.836l-11.802 10.072zM470.948-31.038c-39.433-15.507-83.453-23.325-132.161-23.325v-15.515c50.384 0 96.363 8.091 137.84 24.402l-5.679 14.438zM338.787-54.364c-38.889 0-74.963 4.917-108.271 14.687l-4.366-14.888c34.875-10.231 72.436-15.313 112.637-15.313v15.515zM230.608-39.705c-33.209 10.184-63.035 25.659-89.536 46.418l-9.568-12.215c28.044-21.966 59.582-38.312 94.555-49.036l4.549 14.832zM141.184 6.623c-26.006 21.158-48.601 48.136-67.734 81.062l-13.415-7.795c19.958-34.346 43.727-62.824 71.357-85.302l9.791 12.035zM73.489 87.617c-18.633 32.83-33.168 72.302-43.494 118.544l-15.142-3.382c10.583-47.396 25.594-88.377 45.143-122.819l13.493 7.658zM30.011 206.089c-9.86 46.165-14.829 99.468-14.829 159.972h-15.515c0-61.314 5.032-115.74 15.171-163.212l15.173 3.24zM15.182 366.061v167.045h-15.515v-167.045h15.515zM15.182 533.107c0 75.883 7.684 140.116 22.879 192.852l-14.909 4.295c-15.714-54.537-23.485-120.304-23.485-197.146h15.515zM38.043 725.9c15.675 52.848 37.729 95.674 65.964 128.762l-11.802 10.071c-29.947-35.094-52.893-79.995-69.036-134.42l14.875-4.413zM104.007 854.661c28.279 33.139 61.986 57.132 101.185 72.107l-5.537 14.493c-41.709-15.934-77.547-41.487-107.45-76.529l11.802-10.071zM205.264 926.796c39.432 15.507 83.451 23.325 132.16 23.325v15.515c-50.382 0-96.362-8.091-137.838-24.402l5.679-14.439zM337.424 950.121c39.354 0 75.418-4.919 108.245-14.678l4.422 14.872c-34.447 10.241-72.020 15.322-112.666 15.322v-15.515zM445.696 935.435c33.162-9.728 62.709-24.954 88.713-45.669l9.667 12.135c-27.632 22.012-58.995 38.149-94.014 48.422l-4.366-14.888zM534.522 889.677c26.351-20.202 48.877-46.645 67.519-79.491l13.494 7.658c-19.54 34.427-43.377 62.53-71.571 84.145l-9.441-12.313zM602.064 810.146c18.601-32.332 32.901-71.534 42.774-117.752l15.174 3.241c-10.128 47.419-24.919 88.216-44.499 122.248l-13.449-7.737zM644.856 692.309c10.299-45.674 15.492-98.717 15.492-159.203h15.515c0 61.331-5.261 115.56-15.872 162.614l-15.135-3.412zM495.864 341.515v216.818h-15.515v-216.818h15.515zM495.864 558.333c0 38.467-2.288 72.080-6.918 100.782l-15.317-2.472c4.462-27.664 6.72-60.413 6.72-98.31h15.515zM488.968 658.977c-4.153 29.069-10.42 54.042-18.908 74.794l-14.361-5.874c7.875-19.25 13.881-42.912 17.909-71.115l15.36 2.195zM470.059 733.77c-8.481 20.728-19.222 37.801-32.377 50.958l-10.971-10.971c11.39-11.39 21.102-26.588 28.987-45.861l14.361 5.874zM437.782 784.628c-13.047 13.528-28.11 23.51-45.157 29.842l-5.402-14.544c14.774-5.488 27.89-14.142 39.39-26.069l11.169 10.771zM392.625 814.469c-16.874 6.268-35.302 9.349-55.201 9.349v-15.515c18.285 0 34.856-2.828 49.799-8.378l5.402 14.544zM337.424 823.818c-24.705 0-47.079-4.996-66.945-15.171l7.073-13.809c17.408 8.917 37.306 13.465 59.871 13.465v15.515zM270.614 808.715c-20.098-9.804-36.805-25.412-50.188-46.444l13.089-8.329c12.072 18.969 26.73 32.451 43.902 40.828l-6.802 13.945zM220.425 762.27c-13.402-21.059-23.439-48.634-30.372-82.376l15.197-3.122c6.704 32.621 16.212 58.228 28.264 77.169l-13.089 8.329zM190.036 679.813c-6.488-33.37-9.688-73.899-9.688-121.481h15.515c0 46.964 3.165 86.435 9.404 118.52l-15.231 2.96zM180.348 558.333v-216.818h15.515v216.818h-15.515zM180.348 341.515c0-38.44 2.059-72.231 6.215-101.325l15.358 2.195c-4.026 28.179-6.059 61.206-6.059 99.129h-15.515zM186.581 240.072c4.61-29.040 11.098-54.173 19.551-75.301l14.404 5.762c-7.911 19.78-14.15 43.737-18.632 71.97l-15.323-2.431zM206.187 164.634c8.889-21.054 19.537-38.656 32.053-52.617l11.551 10.358c-11.12 12.403-20.927 28.438-29.311 48.294l-14.293-6.035zM238.431 111.811c13.011-13.49 28.014-23.668 44.977-30.453l5.761 14.404c-14.856 5.944-28.033 14.856-39.568 26.819l-11.169-10.771zM283.587 81.289c16.874-6.268 35.302-9.349 55.2-9.349v15.515c-18.283 0-34.855 2.828-49.799 8.378l-5.401-14.544zM338.787 71.939c25.13 0 47.543 4.985 67.016 15.208l-7.213 13.737c-16.891-8.868-36.751-13.43-59.803-13.43v-15.515zM405.734 87.11c20.067 10.279 36.738 26.34 50.095 47.807l-13.174 8.197c-12.097-19.442-26.79-33.381-43.995-42.193l7.073-13.81zM455.869 134.982c13.354 21.938 23.152 49.939 29.628 83.709l-15.237 2.922c-6.251-32.593-15.543-58.685-27.643-78.564l13.253-8.066zM485.482 218.61c6.951 34.293 10.383 75.293 10.383 122.905h-15.515c0-46.933-3.389-86.843-10.074-119.822l15.206-3.083zM1480.833 93.333h7.758v7.758h-7.758v-7.758zM1480.833-48.485v-7.758h7.758v7.758h-7.758zM808.561-48.485h-7.758v-7.758h7.758v7.758zM808.561 72.879l-5.694 5.269-2.064-2.23v-3.039h7.758zM1131.061 421.288l5.694-5.27 0.127 0.143-5.821 5.128zM1252.425 597.197l-7.27 2.709-0.029-0.081 7.3-2.628zM1249.015 743.106l-7.019-3.303 0.026-0.054 6.993 3.357zM1201.289 796.97l-4.099-6.588 0.065-0.039 4.034 6.627zM1040.379 792.879l4.214-6.513 0.031 0.020-4.245 6.493zM987.197 730.151l-7.055 3.229-0.043-0.099 7.098-3.129zM969.47 638.106v-7.758h7.758v7.758h-7.758zM788.787 638.106h-7.758v-7.758h7.758v7.758zM829.698 798.334l6.751-3.821 0.016 0.026-6.766 3.795zM1301.515 924.47l-3.361-6.992 0.054-0.026 3.306 7.018zM1386.060 494.924l-6.572 4.121-0.017-0.026 6.589-4.094zM1232.651 308.787l-5.523 5.447-0.126-0.127-0.119-0.133 5.769-5.187zM1039.016 93.333l-5.77 5.185-11.633-12.943h17.403v7.758zM1473.075 93.333v-141.818h15.515v141.818h-15.515zM1480.833-40.727h-672.272v-15.515h672.272v15.515zM816.319-48.485v121.364h-15.515v-121.364h15.515zM814.254 67.609l322.499 348.41-11.385 10.539-322.501-348.41 11.387-10.539zM1136.882 416.16c33.749 38.31 60.549 71.737 80.327 100.253l-12.75 8.842c-19.313-27.85-45.695-60.785-79.219-98.839l11.643-10.256zM1217.209 516.413c19.783 28.525 34.031 54.59 42.515 78.156l-14.598 5.257c-7.88-21.889-21.358-46.732-40.667-74.57l12.75-8.842zM1259.694 594.489c8.901 23.892 13.442 46.857 13.442 68.844h-15.515c0-19.831-4.094-40.957-12.466-63.427l14.539-5.416zM1273.136 663.333c0 31.378-5.621 59.159-17.127 83.13l-13.987-6.715c10.311-21.484 15.599-46.885 15.599-76.415h15.515zM1256.034 746.409c-11.525 24.491-28.441 43.63-50.713 57.187l-8.066-13.253c19.548-11.899 34.448-28.667 44.741-50.541l14.038 6.606zM1205.386 803.556c-21.954 13.66-48.685 20.262-79.78 20.262v-15.515c28.906 0 52.629-6.126 71.584-17.919l8.197 13.172zM1125.606 823.818c-34.42 0-64.366-8.031-89.473-24.447l8.491-12.986c22.166 14.494 49.039 21.918 80.981 21.918v15.515zM1036.164 799.392c-24.506-15.858-43.177-37.947-56.021-66.012l14.108-6.456c11.702 25.571 28.486 45.3 50.342 59.442l-8.429 13.027zM980.098 733.28c-12.324-27.965-18.385-59.741-18.385-95.175h15.515c0 33.659 5.755 63.246 17.068 88.917l-14.198 6.257zM969.47 645.863h-180.683v-15.515h180.683v15.515zM796.545 638.106c0 57.38 13.329 109.459 39.903 156.407l-13.503 7.643c-27.971-49.417-41.916-104.155-41.916-164.049h15.515zM836.464 794.539c26.548 47.346 64.602 85.219 114.354 113.65l-7.697 13.471c-52.064-29.751-92.194-69.605-120.191-119.533l13.534-7.588zM950.818 908.189c49.529 28.302 108.603 42.614 177.515 42.614v15.515c-71.087 0-132.923-14.779-185.212-44.658l7.697-13.471zM1128.333 950.803c67.354 0 123.862-11.23 169.821-33.325l6.723 13.983c-48.587 23.359-107.534 34.857-176.544 34.857v-15.515zM1298.209 917.452c45.998-21.672 80.677-52.481 104.363-92.396l13.343 7.918c-25.406 42.812-62.545 75.64-111.093 98.513l-6.613-14.035zM1402.571 825.056c23.709-39.956 35.731-87.849 35.731-143.996h15.515c0 58.399-12.522 109.141-37.904 151.913l-13.343-7.918zM1438.303 681.061c0-30.951-5.081-61.477-15.273-91.606l14.698-4.971c10.719 31.69 16.091 63.891 16.091 96.577h-15.515zM1423.030 589.455c-10.242-30.281-24.74-60.418-43.542-90.41l13.146-8.242c19.38 30.917 34.427 62.144 45.093 93.68l-14.698 4.971zM1379.471 499.018c-18.418-29.649-40.468-59.808-66.174-90.475l11.891-9.967c26.112 31.153 48.607 61.902 67.463 92.255l-13.18 8.187zM1313.297 408.543c-25.76-30.731-54.48-62.168-86.17-94.309l11.048-10.893c31.947 32.403 60.953 64.149 87.012 95.235l-11.891 9.967zM1226.882 313.974l-193.637-215.456 11.54-10.37 193.635 215.454-11.539 10.372zM1039.016 85.575h441.817v15.515h-441.817v-15.515z" />
<glyph unicode="&#xe902;" glyph-name="03" horiz-adv-x="1446" d="M1089.662 532.838h-106.133v-150.060h106.133c34.116 0 63.074-5.185 87.078-15.292l0.042-0.018c24.192-10.010 42.541-25.526 55.343-46.584 12.74-20.96 19.42-48.812 19.42-84.105 0-29.404-5.959-54.326-17.557-75.047-11.579-20.248-28.312-35.995-50.434-47.273-21.659-10.824-48.015-16.401-79.334-16.401-28.073 0-53.143 5.518-75.357 16.401-21.777 11.323-38.813 26.735-51.283 46.256-11.975 19.43-18.036 41.624-18.036 66.799v7.529h-190.426v-7.529c0-46.886 9.248-88.48 27.979-124.571l0.018-0.035c18.608-35.4 43.832-64.949 75.63-88.571l0.057-0.041c31.605-23.026 67.015-40.382 106.175-52.084l0.098-0.029c39.504-11.223 80.123-16.831 121.836-16.831 47.866 0 92.509 6.263 133.883 18.855l0.072 0.023c41.391 13.047 77.539 31.995 108.344 56.907 31.306 24.962 55.615 55.406 72.868 91.275l0.017 0.033c17.312 36.447 25.876 77.723 25.876 123.672 0 35.354-6.575 68.554-19.777 99.527-12.826 31.13-32.732 58.312-59.576 81.521-20.725 18.257-45.643 33.17-74.644 44.814 21.277 11.083 40.23 23.909 56.812 38.49 26.708 23.54 47.003 49.931 60.723 79.191 14.101 29.571 21.239 59.344 21.239 89.251 0 61.119-13.713 112.935-41.6 155.011-27.338 41.91-65.806 73.484-115.114 94.753-48.788 21.676-105.443 32.398-169.785 32.398-59.228 0-113.074-11.448-161.402-34.483-48.285-23.014-86.831-54.933-115.429-95.788l-0.009-0.014c-28.311-40.64-42.382-87.834-42.382-141.29v-7.529h190.426v7.529c0 24.79 5.864 45.55 17.251 62.642 12.018 17.815 27.946 31.488 47.931 41.070 20.539 9.636 43.031 14.496 67.582 14.496 30.917 0 55.555-5.593 74.383-16.233l0.17-0.092c19.361-10.297 33.659-25.025 43.097-44.309l0.029-0.057c9.519-19.039 14.425-41.882 14.425-68.765 0-27.196-5.516-50.876-16.327-71.251l-0.027-0.051c-10.266-19.71-26.098-35.427-47.828-47.133-21.085-11.154-48.438-16.977-82.479-16.977zM945.328 902.997c46.085 21.965 97.679 33.018 154.922 33.018 62.7 0 117.209-10.45 163.706-31.116l0.077-0.034c46.843-20.199 82.917-49.937 108.512-89.184l0.032-0.048c25.922-39.095 39.114-87.855 39.114-146.722 0-27.439-6.536-55.013-19.781-82.787l-0.021-0.047c-12.749-27.196-31.712-51.971-57.052-74.305-18.723-16.464-40.823-30.688-66.366-42.633v-16.548c0.258 0.114 0.515 0.23 0.773 0.345 33.447-11.753 61.208-27.493 83.454-47.099l0.054-0.048c25.193-21.777 43.659-47.075 55.535-75.921l0.036-0.086c12.374-29.015 18.589-60.211 18.589-93.664 0-44.044-8.2-83.054-24.41-117.191-16.27-33.819-39.153-62.479-68.71-86.039l-0.041-0.035c-29.184-23.603-63.604-41.707-103.367-54.246-39.794-12.109-82.936-18.196-129.473-18.196-40.326 0-79.542 5.417-117.668 16.242-37.576 11.234-71.407 27.839-101.548 49.795-29.949 22.254-53.683 50.046-71.245 83.453-16.455 31.715-25.251 68.352-26.19 110.083h160.393c1.116-24.752 7.794-47.218 20.144-67.233l0.062-0.098c13.984-21.906 33.089-39.112 57.141-51.602l0.154-0.077c24.531-12.034 51.936-17.976 82.066-17.976 33.084 0 61.869 5.891 86.088 18.001l0.051 0.026c24.615 12.539 43.601 30.306 56.722 53.268l0.032 0.056c13.1 23.392 19.491 50.962 19.491 82.429 0 37.061-6.998 67.885-21.611 91.927-14.548 23.933-35.454 41.502-62.429 52.668-26.285 11.064-57.321 16.464-92.901 16.464h-91.074v4.986h-0.059v90.353h0.059v24.603h91.074c35.649 0 65.64 6.084 89.552 18.742l0.047 0.026c24.135 12.996 42.263 30.797 54.052 53.424 12.121 22.853 18.069 49.015 18.069 78.279 0 28.689-5.234 53.923-15.997 75.463-10.844 22.149-27.397 39.165-49.458 50.92-21.746 12.267-49.138 18.132-81.708 18.132-26.613 0-51.317-5.284-74.008-15.935l-0.054-0.026c-22.35-10.71-40.38-26.145-53.944-46.256l-0.023-0.033c-12.070-18.104-18.527-39.355-19.625-63.486h-160.379c1.259 47.515 14.499 89.145 39.575 125.145 26.988 38.554 63.441 68.839 109.566 90.824zM1405.511 579.661l0.012 0.026-6.817 3.195 6.796-3.241 0.009 0.020zM342.53 812.765c-23.953 0-45.648-4.839-64.911-14.692-19.479-9.517-35.673-24.656-48.648-45.045-13.006-20.439-22.749-47.203-29.479-79.953l-0.015-0.078c-6.298-32.389-9.403-71.725-9.403-117.908v-210.441c0-37.31 1.997-70.106 6.031-98.345l0.018-0.114c4.472-28.186 10.77-52.581 18.973-73.088l0.056-0.131c8.629-20.435 18.962-37.519 31.11-51.069l0.092-0.101 0.095-0.099c12.627-13.094 27.189-22.975 43.651-29.56l0.176-0.065c16.378-6.084 34.265-9.074 53.578-9.074 24.373 0 46.115 4.831 65.004 14.74 19.465 9.976 35.637 25.561 48.595 46.386l0.038 0.063c12.957 21.286 22.465 48.449 28.75 81.209 6.742 33.277 10.068 73.056 10.068 119.249v210.441c0 37.307-2.217 69.909-6.703 97.75-4.031 28.186-10.11 52.403-18.343 72.528-8.219 20.093-18.629 36.649-31.377 49.411-12.651 13.106-27.256 22.776-43.779 28.914-16.378 6.083-34.265 9.074-53.578 9.074zM284.418 784.637c16.896 8.654 36.209 13.070 58.112 13.070 17.745 0 33.83-2.745 48.334-8.132 14.338-5.326 27.068-13.728 38.23-25.302l0.096-0.096c11.055-11.055 20.483-25.806 28.136-44.512 7.642-18.683 13.47-41.65 17.381-69.024l0.021-0.134c4.331-26.85 6.522-58.636 6.522-95.419v-210.441c0-45.553-3.287-84.289-9.776-116.298l-0.015-0.078c-6.064-31.616-15.077-56.928-26.811-76.219-11.738-18.857-25.993-32.375-42.683-40.924l-0.068-0.035c-16.395-8.608-35.67-13.035-58.044-13.035-17.709 0-33.763 2.733-48.245 8.099-14.344 5.752-27.074 14.359-38.225 25.898-10.743 12.011-20.222 27.518-28.33 46.705-7.662 19.173-13.704 42.385-18.048 69.731-3.902 27.338-5.871 59.374-5.871 96.155v210.441c0 45.565 3.069 83.863 9.118 114.997 6.505 31.643 15.732 56.483 27.425 74.859 11.716 18.411 25.943 31.496 42.61 39.626l0.131 0.068zM342.53 950.412c-48.887 0-93.505-7.849-133.751-23.671-40.469-15.467-75.241-40.263-104.256-74.265-29.066-34.062-51.337-77.642-67.006-130.467l-0.016-0.057c-15.252-52.933-22.794-116.766-22.794-191.348v-162.132c0-59.511 4.884-112.336 14.725-158.411l0.015-0.069c10.272-46.002 24.841-85.778 43.815-119.207l0.038-0.066c19.371-33.336 42.44-60.976 69.258-82.795l0.109-0.086c27.219-21.32 57.829-37.185 91.773-47.593l0.089-0.027c33.849-9.93 70.305-14.863 109.326-14.863 48.901 0 93.529 7.853 133.784 23.685l0.068 0.027c40.418 16.348 75.156 41.564 104.154 75.547l0.032 0.038c29.067 34.516 51.111 78.548 66.334 131.826 15.247 53.364 22.79 117.409 22.79 191.995v162.132c0 59.509-5.103 112.13-15.396 157.791-9.829 45.999-24.177 85.576-43.171 118.593-18.95 33.382-42.064 60.636-69.399 81.606-26.802 21.339-57.216 36.985-91.174 46.949-33.432 9.939-69.899 14.87-109.347 14.87zM214.255 912.713c38.274 15.051 80.998 22.639 128.274 22.639 38.197 0 73.199-4.774 105.059-14.247l0.027-0.008c32.187-9.442 60.865-24.221 86.103-44.327l0.111-0.085c25.576-19.608 47.438-45.273 65.533-77.153l0.021-0.038c18.056-31.381 31.935-69.43 41.516-114.289l0.020-0.083c9.996-44.33 15.036-95.813 15.036-154.52v-162.132c0-73.65-7.457-136.222-22.21-187.859-14.774-51.709-35.957-93.698-63.351-126.237-27.463-32.179-60.211-55.925-98.306-71.34-38.263-15.041-80.976-22.624-128.236-22.624-37.727 0-72.727 4.768-105.040 14.241-32.193 9.877-61.11 24.877-86.807 44.997-25.21 20.521-47.115 46.678-65.667 78.598-18.072 31.849-32.171 70.139-42.189 114.989-9.566 44.8-14.386 96.523-14.386 155.234v162.132c0 73.638 7.455 135.972 22.198 187.151 15.213 51.28 36.616 92.838 64.015 124.946 27.447 32.164 60.164 55.452 98.21 69.986l0.068 0.027zM612.448 806.987l-0.011 0.018-6.526-3.756 6.549 3.717-0.012 0.021zM655.619 688.395l0.009-0.042-7.364-1.574 7.346 1.656 0.009-0.041zM208.779 926.741l0.035 0.013 2.686-7.034-2.756 7.007 0.035 0.013z" />
<glyph unicode="&#xe903;" glyph-name="04" horiz-adv-x="1491" d="M342.177 814.566c-23.953 0-45.648-4.839-64.913-14.691-19.479-9.519-35.671-24.656-48.646-45.045-13.008-20.441-22.751-47.203-29.479-79.953l-0.015-0.078c-6.299-32.389-9.404-71.725-9.404-117.908v-210.443c0-37.308 1.998-70.106 6.033-98.343l0.017-0.116c4.474-28.184 10.772-52.581 18.974-73.086l0.056-0.133c8.627-20.435 18.962-37.519 31.11-51.067l0.090-0.102 0.095-0.098c12.628-13.095 27.19-22.975 43.653-29.56l0.176-0.066c16.378-6.082 34.263-9.074 53.576-9.074 24.374 0 46.115 4.832 65.006 14.74 19.465 9.978 35.635 25.561 48.593 46.386l0.039 0.063c12.957 21.286 22.463 48.449 28.75 81.209 6.74 33.277 10.068 73.058 10.068 119.249v210.443c0 37.305-2.218 69.908-6.703 97.75-4.031 28.186-10.11 52.402-18.343 72.526-8.221 20.093-18.629 36.649-31.378 49.413-12.649 13.104-27.255 22.776-43.779 28.913-16.378 6.083-34.263 9.074-53.576 9.074zM284.065 786.438c16.896 8.654 36.209 13.070 58.112 13.070 17.745 0 33.83-2.745 48.334-8.132 14.338-5.326 27.068-13.726 38.23-25.302l0.096-0.096c11.055-11.055 20.483-25.806 28.134-44.512 7.644-18.683 13.472-41.65 17.382-69.022l0.021-0.134c4.331-26.85 6.522-58.638 6.522-95.419v-210.443c0-45.553-3.289-84.287-9.776-116.298l-0.017-0.077c-6.063-31.618-15.075-56.93-26.811-76.22-11.738-18.855-25.992-32.375-42.683-40.924l-0.068-0.035c-16.395-8.608-35.67-13.035-58.044-13.035-17.708 0-33.763 2.735-48.244 8.099-14.345 5.752-27.074 14.36-38.227 25.898-10.743 12.011-20.221 27.518-28.329 46.706-7.662 19.173-13.705 42.383-18.048 69.73-3.902 27.338-5.873 59.374-5.873 96.155v210.443c0 45.563 3.069 83.863 9.12 114.997 6.505 31.642 15.73 56.481 27.424 74.857 11.717 18.411 25.943 31.496 42.612 39.627l0.131 0.066zM342.177 952.213c-48.888 0-93.505-7.849-133.752-23.671-40.469-15.467-75.24-40.263-104.255-74.265-29.066-34.062-51.337-77.641-67.006-130.467l-0.017-0.056c-15.252-52.935-22.794-116.766-22.794-191.349v-162.132c0-59.511 4.884-112.336 14.725-158.411l0.015-0.068c10.272-46.002 24.841-85.78 43.815-119.209l0.038-0.066c19.371-33.336 42.44-60.976 69.258-82.793l0.109-0.086c27.219-21.322 57.829-37.185 91.774-47.595l0.089-0.027c33.849-9.928 70.305-14.863 109.324-14.863 48.902 0 93.529 7.853 133.786 23.685l0.068 0.027c40.418 16.349 75.156 41.565 104.154 75.549l0.032 0.038c29.067 34.515 51.111 78.548 66.334 131.825 15.246 53.364 22.789 117.409 22.789 191.995v162.132c0 59.509-5.103 112.131-15.395 157.792-9.829 45.997-24.178 85.575-43.171 118.591-18.95 33.382-42.064 60.637-69.4 81.607-26.8 21.339-57.214 36.985-91.172 46.949-33.432 9.939-69.899 14.87-109.347 14.87zM213.903 914.515c38.272 15.051 80.998 22.639 128.274 22.639 38.197 0 73.198-4.774 105.059-14.247l0.027-0.008c32.187-9.442 60.863-24.221 86.103-44.327l0.111-0.085c25.574-19.608 47.438-45.273 65.531-77.154l0.023-0.038c18.056-31.381 31.934-69.43 41.516-114.289l0.018-0.083c9.996-44.33 15.036-95.813 15.036-154.52v-162.132c0-73.65-7.457-136.222-22.21-187.859-14.773-51.709-35.956-93.696-63.351-126.237-27.461-32.178-60.211-55.924-98.304-71.34-38.264-15.041-80.977-22.624-128.238-22.624-37.725 0-72.725 4.768-105.038 14.241-32.193 9.877-61.11 24.879-86.808 44.997-25.209 20.521-47.114 46.678-65.666 78.598-18.072 31.849-32.171 70.139-42.189 114.991-9.566 44.798-14.386 96.523-14.386 155.232v162.132c0 73.638 7.455 135.974 22.198 187.151 15.213 51.28 36.616 92.838 64.015 124.946 27.447 32.164 60.165 55.452 98.209 69.986l0.069 0.027zM612.096 808.788l-0.011 0.018-6.526-3.756 6.548 3.718-0.011 0.020zM655.267 690.197l0.009-0.044-7.364-1.572 7.344 1.656 0.011-0.041zM208.425 928.542l0.036 0.013 2.686-7.034-2.756 7.007 0.033 0.013zM1171.117 938.853l-411.768-649.354 7.93-115.358h403.838v-213.751h190.426v213.751h114.486v152.706h-114.486v612.132l-190.426-0.125zM1186.176 924.048l160.309-0.129v-597.073h-160.309v597.202zM1171.117 910.733v-208.623l-13.517-22.942-226.028-367.381h239.545v-122.588h-389.78l-6.627 96.405 396.407 625.129zM1171.117 672.444v-345.598h-212.6l212.6 345.598zM1186.176 189.199v122.588h160.309v-122.588h-160.309zM1361.544 189.199v122.588h99.427v-122.588h-99.427zM1186.176 174.14h160.309v-198.692h-160.309v198.692z" />
<glyph unicode="&#xe904;" glyph-name="05" horiz-adv-x="1489" d="M578.105 37.424l5.902-5.036 0.033 0.039-5.935 4.997zM473.788-38.257l2.839-7.221 0.070 0.029-2.909 7.191zM228.333-47.121l-2.275-7.418 0.092-0.026 2.183 7.444zM136.288 0.607l-4.897-6.020 0.113-0.088 4.784 6.108zM66.742 83.788l-6.747-3.829 0.040-0.068 6.707 3.897zM22.424 204.47l-7.587-1.62 0.016-0.071 7.571 1.691zM30.606 728.106l-7.438 2.206-0.017-0.059 7.454-2.147zM202.425 934.015l2.768-7.247 0.071 0.028-2.839 7.22zM447.879 942.879l-2.211-7.436 0.028-0.008 2.183 7.444zM539.243 895.833l-4.835-6.069 0.113-0.088 4.721 6.157zM608.788 814.015l-6.748-3.829 0.023-0.039 6.724 3.869zM652.425 694.014l-7.587-1.62 0.019-0.085 7.568 1.705zM481.288 657.878l-7.68-1.097 0.022-0.138 7.658 1.235zM432.196 779.242l-5.584-5.385 0.099-0.099 5.485 5.485zM274.015 801.742l3.402-6.974 0.135 0.070-3.537 6.904zM197.652 678.333l-7.599 1.561-0.017-0.081 7.616-1.48zM194.242 241.289l-7.68-1.098 0.019-0.118 7.661 1.216zM213.333 167.652l-7.204-2.883 0.057-0.135 7.146 3.018zM244.015 117.197l-5.775-5.179 0.093-0.104 0.098-0.102 5.584 5.385zM286.287 88.56l-2.881-7.205 0.182-0.067 2.7 7.272zM402.198 94.016l-3.537 6.904-0.070-0.036 3.607-6.869zM449.243 139.016l6.586-4.099 0.040 0.065-6.627 4.034zM477.879 220.152l-7.604 1.541-0.016-0.081 7.619-1.46zM660.348 533.107v-167.045h15.515v167.045h-15.515zM660.348 366.061c0-75.882-7.683-140.35-22.883-193.552l14.918-4.262c15.709 54.981 23.481 120.967 23.481 197.814h-15.515zM637.465 172.51c-15.225-53.29-37.058-96.559-65.292-130.088l11.868-9.995c29.946 35.562 52.66 80.929 68.343 135.821l-14.918 4.262zM572.205 42.46c-28.304-33.17-62.059-57.643-101.326-73.526l5.818-14.383c41.643 16.843 77.433 42.823 107.311 77.836l-11.802 10.072zM470.948-31.038c-39.433-15.507-83.453-23.325-132.161-23.325v-15.515c50.384 0 96.363 8.091 137.84 24.402l-5.679 14.438zM338.787-54.364c-38.889 0-74.963 4.917-108.271 14.687l-4.366-14.888c34.875-10.231 72.436-15.313 112.637-15.313v15.515zM230.608-39.705c-33.209 10.184-63.035 25.659-89.536 46.418l-9.568-12.215c28.044-21.966 59.582-38.312 94.555-49.036l4.549 14.832zM141.184 6.623c-26.006 21.158-48.601 48.136-67.734 81.062l-13.415-7.795c19.958-34.346 43.727-62.824 71.357-85.302l9.791 12.035zM73.489 87.617c-18.633 32.83-33.168 72.302-43.494 118.544l-15.142-3.382c10.583-47.396 25.594-88.377 45.143-122.819l13.493 7.658zM30.011 206.089c-9.86 46.165-14.829 99.468-14.829 159.972h-15.515c0-61.314 5.032-115.74 15.171-163.212l15.173 3.24zM15.182 366.061v167.045h-15.515v-167.045h15.515zM15.182 533.107c0 75.883 7.684 140.116 22.879 192.852l-14.909 4.295c-15.714-54.537-23.485-120.304-23.485-197.146h15.515zM38.043 725.9c15.675 52.848 37.729 95.674 65.964 128.762l-11.802 10.071c-29.947-35.094-52.893-79.995-69.036-134.42l14.875-4.413zM104.007 854.661c28.279 33.139 61.986 57.132 101.185 72.107l-5.537 14.493c-41.709-15.934-77.547-41.487-107.45-76.529l11.802-10.071zM205.264 926.796c39.432 15.507 83.451 23.325 132.16 23.325v15.515c-50.382 0-96.362-8.091-137.838-24.402l5.679-14.439zM337.424 950.121c39.354 0 75.418-4.919 108.245-14.678l4.422 14.872c-34.447 10.241-72.020 15.322-112.666 15.322v-15.515zM445.696 935.435c33.162-9.728 62.709-24.954 88.713-45.669l9.667 12.135c-27.632 22.012-58.995 38.149-94.014 48.422l-4.366-14.888zM534.522 889.677c26.351-20.202 48.877-46.645 67.519-79.491l13.494 7.658c-19.54 34.427-43.377 62.53-71.571 84.145l-9.441-12.313zM602.064 810.146c18.601-32.332 32.901-71.534 42.774-117.752l15.174 3.241c-10.128 47.419-24.919 88.216-44.499 122.248l-13.449-7.737zM644.856 692.309c10.299-45.674 15.492-98.717 15.492-159.203h15.515c0 61.331-5.261 115.56-15.872 162.614l-15.135-3.412zM495.864 341.515v216.818h-15.515v-216.818h15.515zM495.864 558.333c0 38.467-2.288 72.080-6.918 100.782l-15.317-2.472c4.462-27.664 6.72-60.413 6.72-98.31h15.515zM488.968 658.977c-4.153 29.069-10.42 54.042-18.908 74.794l-14.361-5.874c7.875-19.25 13.881-42.912 17.909-71.115l15.36 2.195zM470.059 733.77c-8.481 20.728-19.222 37.801-32.377 50.958l-10.971-10.971c11.39-11.39 21.102-26.588 28.987-45.861l14.361 5.874zM437.782 784.628c-13.047 13.528-28.11 23.51-45.157 29.842l-5.402-14.544c14.774-5.488 27.89-14.142 39.39-26.069l11.169 10.771zM392.625 814.469c-16.874 6.268-35.302 9.349-55.201 9.349v-15.515c18.285 0 34.856-2.828 49.799-8.378l5.402 14.544zM337.424 823.818c-24.705 0-47.079-4.996-66.945-15.171l7.073-13.809c17.408 8.917 37.306 13.465 59.871 13.465v15.515zM270.614 808.715c-20.098-9.804-36.805-25.412-50.188-46.444l13.089-8.329c12.072 18.969 26.73 32.451 43.902 40.828l-6.802 13.945zM220.425 762.27c-13.402-21.059-23.439-48.634-30.372-82.376l15.197-3.122c6.704 32.621 16.212 58.228 28.264 77.169l-13.089 8.329zM190.036 679.813c-6.488-33.37-9.688-73.899-9.688-121.481h15.515c0 46.964 3.165 86.435 9.404 118.52l-15.231 2.96zM180.348 558.333v-216.818h15.515v216.818h-15.515zM180.348 341.515c0-38.44 2.059-72.231 6.215-101.325l15.358 2.195c-4.026 28.179-6.059 61.206-6.059 99.129h-15.515zM186.581 240.072c4.61-29.040 11.098-54.173 19.551-75.301l14.404 5.762c-7.911 19.78-14.15 43.737-18.632 71.97l-15.323-2.431zM206.187 164.634c8.889-21.054 19.537-38.656 32.053-52.617l11.551 10.358c-11.12 12.403-20.927 28.438-29.311 48.294l-14.293-6.035zM238.431 111.811c13.011-13.49 28.014-23.668 44.977-30.453l5.761 14.404c-14.856 5.944-28.033 14.856-39.568 26.819l-11.169-10.771zM283.587 81.289c16.874-6.268 35.302-9.349 55.2-9.349v15.515c-18.283 0-34.855 2.828-49.799 8.378l-5.401-14.544zM338.787 71.939c25.13 0 47.543 4.985 67.016 15.208l-7.213 13.737c-16.891-8.868-36.751-13.43-59.803-13.43v-15.515zM405.734 87.11c20.067 10.279 36.738 26.34 50.095 47.807l-13.174 8.197c-12.097-19.442-26.79-33.381-43.995-42.193l7.073-13.81zM455.869 134.982c13.354 21.938 23.152 49.939 29.628 83.709l-15.237 2.922c-6.251-32.593-15.543-58.685-27.643-78.564l13.253-8.066zM485.482 218.61c6.951 34.293 10.383 75.293 10.383 122.905h-15.515c0-46.933-3.389-86.843-10.074-119.822l15.206-3.083zM987.197 408.334l-1.821-7.54 4.229-1.024 3.078 3.078-5.486 5.486zM843.334 443.107l-7.711 0.849-0.748-6.786 6.636-1.603 1.823 7.54zM898.56 944.243v7.757h-6.949l-0.762-6.908 7.711-0.85zM1444.696 944.243h7.758v7.757h-7.758v-7.757zM1444.696 794.925v-7.758h7.758v7.758h-7.758zM1047.879 794.925v7.758h-6.94l-0.77-6.896 7.709-0.861zM1021.969 563.105l-7.709 0.863-1.761-15.766 13.525 8.29-4.054 6.614zM1083.333 589.016l2.378-7.385 0.074 0.025-2.453 7.36zM1302.198 579.469l-2.973-7.166 0.076-0.029 2.897 7.196zM1396.97 514.015l-5.753-5.205 0.045-0.050 5.708 5.255zM1456.288 409.015l-7.391-2.355 0.033-0.098 7.359 2.453zM1456.288 141.742l-7.343 2.504-0.016-0.050 7.359-2.454zM1395.606 36.060l5.779-5.176 0.037 0.043-5.817 5.132zM1292.651-36.212l2.99-7.159 0.067 0.028-3.056 7.131zM1024.697-43.712l-2.427-7.368 0.102-0.033 2.324 7.401zM920.379 11.515l-4.825-6.076 0.056-0.043 4.769 6.119zM846.060 101.516l-6.903-3.541 0.037-0.070 6.865 3.61zM816.061 223.561v7.758h-8.071l0.318-8.065 7.753 0.307zM994.015 223.561l7.716 0.805-0.726 6.952h-6.99v-7.758zM1070.379 96.743l-3.645-6.85 0.061-0.031 3.584 6.881zM1212.878 94.016l3.537-6.906 0.062 0.034-3.6 6.872zM1285.834 353.106l-7.443-2.189 0.012-0.040 7.43 2.23zM1201.289 451.97l-3.094-7.115 0.056-0.023 3.038 7.139zM1040.379 448.56l-3.769 6.782-0.064-0.036 3.832-6.746zM989.020 415.874l-143.864 34.773-3.645-15.081 143.864-34.773 3.645 15.081zM851.045 442.256l55.226 501.136-15.422 1.699-55.226-501.137 15.422-1.699zM898.56 936.485h546.136v15.515h-546.136v-15.515zM1436.939 944.243v-149.318h15.515v149.318h-15.515zM1444.696 802.683h-396.817v-15.515h396.817v15.515zM1040.17 795.786l-25.91-231.818 15.419-1.724 25.91 231.818-15.419 1.724zM1026.023 556.491c13.324 8.167 33.108 16.579 59.688 25.139l-4.755 14.769c-27.057-8.713-48.182-17.572-63.040-26.68l8.107-13.228zM1085.786 581.655c26.351 8.783 56.185 13.239 89.592 13.239v15.515c-34.774 0-66.302-4.636-94.498-14.035l4.906-14.719zM1175.378 594.894c46.426 0 87.664-7.588 123.848-22.59l5.942 14.331c-38.363 15.906-81.67 23.774-129.79 23.774v-15.515zM1299.301 572.273c36.228-14.58 66.828-35.734 91.916-63.463l11.504 10.409c-26.73 29.544-59.31 52.027-97.629 67.447l-5.792-14.393zM1391.262 508.76c25.513-27.713 44.757-61.69 57.634-102.101l14.783 4.71c-13.486 42.316-33.789 78.339-61.002 107.899l-11.414-10.508zM1448.929 406.562c13.324-39.978 20.056-85.49 20.056-136.637h15.515c0 52.488-6.906 99.702-20.854 141.543l-14.718-4.906zM1468.985 269.925c0-44.668-6.698-86.544-20.039-125.679l14.685-5.007c13.931 40.865 20.869 84.443 20.869 130.686h-15.515zM1448.929 144.196c-12.857-38.571-32.563-72.884-59.139-103.004l11.633-10.265c27.969 31.699 48.718 67.84 62.224 108.361l-14.718 4.907zM1389.827 41.236c-26.446-29.53-59.802-52.99-100.231-70.318l6.111-14.262c42.297 18.128 77.577 42.85 105.677 74.229l-11.557 10.35zM1289.663-29.054c-40.214-16.792-87.792-25.31-142.921-25.31v-15.515c56.691 0 106.386 8.755 148.899 26.508l-5.978 14.317zM1146.742-54.364c-41.509 0-81.406 6.023-119.721 18.053l-4.648-14.803c39.868-12.516 81.335-18.766 124.369-18.766v15.515zM1027.125-36.344c-37.823 12.459-71.798 30.456-101.976 53.979l-9.539-12.238c31.638-24.66 67.21-43.481 106.66-56.477l4.855 14.736zM925.203 17.59c-30.051 23.865-54.134 53.021-72.276 87.535l-13.732-7.219c19.13-36.394 44.594-67.238 76.359-92.466l9.649 12.15zM852.964 105.055c-17.594 34.309-27.372 73.858-29.151 118.813l-15.504-0.614c1.857-46.864 12.080-88.678 30.849-125.279l13.807 7.080zM816.061 215.803h177.954v15.515h-177.954v-15.515zM986.3 222.754c3.277-31.362 11.745-58.446 25.659-80.994l13.203 8.147c-12.449 20.177-20.345 44.913-23.431 74.459l-15.431-1.612zM1011.959 141.76c13.877-22.489 32.152-39.832 54.776-51.867l7.287 13.698c-20.103 10.693-36.372 26.078-48.86 46.316l-13.203-8.147zM1066.795 89.862c23.093-12.027 49.586-17.923 79.265-17.923v15.515c-27.594 0-51.555 5.469-72.099 16.168l-7.166-13.76zM1146.061 71.939c26.852 0 50.395 4.948 70.355 15.171l-7.073 13.81c-17.312-8.867-38.316-13.466-63.282-13.466v-15.515zM1216.478 87.144c20.204 10.581 36.838 25.288 49.824 44.046l-12.755 8.831c-11.56-16.696-26.289-29.716-44.268-39.134l7.199-13.743zM1266.302 131.19c12.887 18.614 22.328 40.422 28.43 65.296l-15.068 3.696c-5.717-23.308-14.459-43.318-26.117-60.16l12.755-8.831zM1294.732 196.485c6.077 24.781 9.087 51.773 9.087 80.939h-15.515c0-28.107-2.901-53.842-8.64-77.244l15.068-3.696zM1303.819 277.425c0 28.357-3.488 54.35-10.555 77.911l-14.86-4.459c6.568-21.893 9.9-46.356 9.9-73.452h15.515zM1293.276 355.295c-7.089 24.101-18.018 45.076-32.86 62.793l-11.894-9.964c13.34-15.922 23.321-34.945 29.868-57.207l14.885 4.378zM1260.417 418.088c-14.924 17.81-33.669 31.479-56.092 41.019l-6.074-14.275c20.305-8.64 37.013-20.882 50.272-36.707l11.894 9.964zM1204.381 459.084c-22.086 9.602-47.728 14.28-76.729 14.28v-15.515c27.361 0 50.811-4.414 70.543-12.994l6.186 14.229zM1127.652 473.364c-38.322 0-68.934-5.741-91.041-18.022l7.536-13.562c18.801 10.445 46.373 16.069 83.506 16.069v15.515zM1036.547 455.306c-20.573-11.691-38.864-25.516-54.835-41.488l10.971-10.971c14.936 14.938 32.102 27.93 51.529 38.968l-7.664 13.49z" />
<glyph unicode="&#xe905;" glyph-name="ad-icon" d="M655.37 215.493h261.423v-74.693h-261.423v74.693zM818.162 707.269c55.273 29.989 125.97 12.212 157.901-39.774l0.449-0.748c31.332-51.911 11.95-117.864-43.323-147.331l-613.56-327.152c-36.825-19.608-82.162-18.749-118.090 2.277l-145.725 85.223c-10.319 5.99-19.003 14.43-25.283 24.574-20.69 33.688-8.403 76.71 27.412 96.168l37.72 20.466c9.44 5.073 19.79 8.231 30.454 9.294 10.664 1.065 21.434 0.012 31.69-3.095l92.618-28.010 136.202 73.945-207.272 157.751c-5.463 4.139-10.11 9.255-13.706 15.088-15.947 25.956-6.461 59.193 21.175 74.207l84.44 45.824c11.336 6.093 23.953 9.412 36.821 9.685s25.614-2.509 37.198-8.116l307.735-149.907 165.145 89.631zM238.959 258.255c12.063-6.947 27.3-7.246 39.698-0.748l618.717 323.867c18.375 9.636 24.834 31.185 14.377 48.14l-0.111 0.223c-10.756 17.179-34.509 23.042-53.107 13.146l-184.938-98.595-37.31-0.745-329.169 157.45-60.688-32.342 230.988-172.65-5.042-58.896-201.222-107.258-31.371-3.062-109.798 32.602-34.807-18.561 143.783-82.571z" />
<glyph unicode="&#xe906;" glyph-name="anquan" d="M874.717 214.971c-28.198-51.137-63.886-97.591-105.82-137.781-39.431-38.679-83.846-71.713-132.025-98.174-48.227-25.843-93.785-39.477-131.596-39.477-38.088 0-83.157 13.35-130.684 38.752-48.576 26.627-93.354 59.897-133.074 98.899-95.753 93.29-150.679 202.803-150.679 300.407v424.778l72.532 1.082c54.541 2.651 108.267 14.538 158.975 35.162 84.639 35.090 137.444 73.77 139.565 75.422l43.157 32.012 43.66-32.225c0.489-0.357 54.703-40.261 139.411-75.209 50.756-20.232 104.352-32.071 158.766-35.090h0.221l72.311-1.153v-35.447h0.069l0.069-389.331c0-52.315-15.078-106.935-44.858-162.626zM848.663 731.541l-2.877 0.071c-15.497 0.441-97.315 4.458-184.482 40.332-88.855 36.969-147.999 79.239-154.338 83.97l-1.969 1.438-1.899-1.438v-0.143c-6.408-4.743-66.263-47.227-154.267-83.684-58.819-23.952-121.19-37.587-184.481-40.332l-2.89-0.144v-354.015c0-78.002 46.898-168.509 128.856-248.378 34.652-34.162 73.743-63.31 116.179-86.619 37.53-20.102 72.659-31.144 98.712-31.144 56.185 0 142.582 47.286 214.822 117.692 82.027 79.94 128.996 170.446 128.856 248.378l-0.221 354.015zM461.059 281.716c-13.819-13.895-36.027-13.895-49.846 0l-127.447 129.901c-13.632 14.087-13.632 36.719 0 50.805 13.819 13.907 36.027 13.907 49.846 0l102.453-104.559 240.805 245.441c13.807 13.849 35.969 13.849 49.776 0v0.073c13.632-14.087 13.632-36.732 0-50.817l-265.588-270.845z" />
<glyph unicode="&#xe907;" glyph-name="clock" d="M512 896c-247.2 0-448-200.8-448-448s200.8-448 448-448c247.199 0 448 200.801 448 448s-200.801 448-448 448zM512 64c-212 0-384 171.998-384 384 0 212 172 384 384 384 212.002 0 384-172 384-384 0-212.002-171.998-384-384-384zM544 457.6l191.198-110.401-32-55.199-214.398 124.001h-8.8v288h64v-246.4z" />
<glyph unicode="&#xe908;" glyph-name="user" d="M512.831 779.713c73.159 0 133.017-59.858 133.017-133.018s-59.858-133.018-133.017-133.018c-37.411 0-71.497 14.965-97.269 42.399s-38.242 62.352-35.748 99.763c4.157 65.678 59.027 119.716 124.704 123.042 2.494 0.832 4.988 0.832 8.313 0.832zM512.831 314.982c55.702 0 146.318-14.131 224.466-44.891 66.509-26.607 108.078-59.858 108.078-87.296v-67.339h-665.088v67.339c0 27.438 41.568 60.689 108.077 87.296 78.148 30.76 168.767 44.891 224.468 44.891zM512.831 846.222h-11.639c-99.763-5.82-181.237-86.461-187.888-185.393-7.483-116.391 83.967-212.829 198.695-212.829 109.739 0 199.526 89.787 199.526 199.527s-88.957 198.695-198.695 198.695zM512.831 381.491c-133.018 0-399.053-66.509-399.053-198.696v-99.76c0-18.295 14.965-33.257 33.254-33.257h731.6c18.29 0 33.252 14.962 33.252 33.257v100.591c0 131.356-266.035 197.865-399.052 197.865z" />
<glyph unicode="&#xe909;" glyph-name="automoation" d="M326.226 166.846c-51.954 0-102.742 15.407-145.94 44.272s-76.868 69.89-96.75 117.889c-19.882 48.001-25.084 100.817-14.948 151.773s35.154 97.763 71.892 134.5c36.737 36.737 83.543 61.755 134.5 71.891 50.956 10.138 103.774 4.934 151.773-14.948s89.027-53.551 117.891-96.75c28.862-43.198 44.27-93.985 44.27-145.94-0.141-69.626-27.863-136.358-77.095-185.59-49.234-49.234-115.966-76.954-185.592-77.097v0zM326.226 640.219c-41.351 0-81.775-12.263-116.156-35.236-34.382-22.974-61.18-55.628-77.005-93.831s-19.965-80.243-11.898-120.799c8.067-40.557 27.98-77.812 57.22-107.051s66.495-49.152 107.051-57.219c40.557-8.067 82.596-3.928 120.799 11.897s70.857 42.623 93.831 77.005c22.972 34.384 35.236 74.805 35.236 116.156-0.143 55.409-22.215 108.505-61.395 147.683-39.178 39.18-92.275 61.254-147.683 61.395zM326.226 301.406c-25.364-0.106-50.188 7.318-71.33 21.332-21.139 14.014-37.646 33.987-47.426 57.389s-12.394 49.183-7.511 74.072c4.883 24.889 17.044 47.768 34.942 65.741s40.724 30.228 65.593 35.215c24.869 4.989 50.659 2.482 74.103-7.199 23.443-9.683 43.485-26.104 57.588-47.186s21.631-45.875 21.631-71.238c0-33.89-13.425-66.398-37.337-90.411s-56.365-37.575-90.253-37.716v0zM326.226 503.513c-14.782 0.106-29.264-4.188-41.601-12.335-12.335-8.147-21.969-19.78-27.675-33.417-5.708-13.638-7.227-28.664-4.37-43.17 2.859-14.504 9.968-27.83 20.421-38.285 10.453-10.453 23.779-17.562 38.285-20.419 14.504-2.859 29.53-1.337 43.17 4.368 13.638 5.708 25.27 15.342 33.417 27.677 8.147 12.337 12.44 26.817 12.335 41.601-0.141 19.577-7.981 38.312-21.826 52.156-13.842 13.844-32.58 21.684-52.156 21.823v0zM100.53 299.262l52.537 11.258 66.904-312.062-52.537-11.258-66.905 312.062zM536.107 421.652l51.089 16.189 129.198-407.271-51.089-16.189-129.198 407.271zM225.333 672.651l444.637 174.499 19.567-49.857-444.637-174.552-19.567 49.91zM545.599 430.932l255.449 196.317 32.702-42.512-255.556-196.317-32.596 42.512zM798.005 579.639c-26.212-0.137-52.077 5.988-75.444 17.867-23.366 11.876-43.557 29.164-58.892 50.422-15.335 21.256-25.373 45.869-29.274 71.789-3.903 25.919-1.559 52.397 6.84 77.227 8.397 24.83 22.602 47.296 41.435 65.527s41.748 31.7 66.839 39.286c25.090 7.586 51.63 9.070 77.408 4.327 25.78-4.742 50.053-15.573 70.801-31.592 3.537-2.764 6.324-6.373 8.104-10.494s2.494-8.624 2.083-13.094c-0.305-4.534-1.804-8.907-4.348-12.673-2.542-3.766-6.035-6.793-10.127-8.771l-62.188-32.702 24.125-46.105 65.939 34.311c3.766 2.113 8.012 3.223 12.329 3.223 4.319 0 8.565-1.11 12.331-3.223 3.914-1.927 7.287-4.798 9.814-8.354s4.129-7.687 4.661-12.017v-20.907c0.002-43.231-17.062-84.716-47.479-115.433s-71.731-48.189-114.958-48.613v0zM798.005 854.657c-20.759 0.036-41.11-5.75-58.743-16.702-17.635-10.952-31.842-26.63-41.011-45.253s-12.931-39.445-10.856-60.099c2.073-20.654 9.896-40.313 22.583-56.742s29.727-28.971 49.187-36.2c19.458-7.229 40.552-8.856 60.889-4.694s39.098 13.943 54.155 28.232c15.055 14.291 25.801 32.518 31.015 52.611l-48.785-25.197c-6.525-2.681-13.844-2.681-20.371 0-3.373 1.047-6.492 2.777-9.167 5.083s-4.848 5.138-6.38 8.319l-48.785 93.816c-1.667 3.087-2.697 6.477-3.033 9.97-0.334 3.493 0.033 7.017 1.083 10.365s2.759 6.452 5.028 9.128c2.267 2.676 5.050 4.871 8.18 6.455l38.599 19.835c-7.807 1.146-15.708 1.505-23.587 1.072v0z" />
<glyph unicode="&#xe90a;" glyph-name="automotive" d="M800.905 159.093h-577.813v-41.271c0-10.947-4.349-21.446-12.089-29.184-7.739-7.74-18.237-12.089-29.183-12.089h-41.272c-10.946 0-21.444 4.349-29.184 12.089-7.74 7.738-12.088 18.237-12.088 29.184v412.722l102.355 238.885c6.369 14.858 16.962 27.519 30.461 36.411 13.501 8.892 29.315 13.625 45.48 13.611h468.853c16.153-0.002 31.949-4.742 45.433-13.633 13.483-8.892 24.062-21.544 30.427-36.389l102.436-238.885v-412.722c0-10.947-4.347-21.446-12.087-29.184-7.74-7.74-18.237-12.089-29.184-12.089h-41.273c-10.945 0-21.444 4.349-29.184 12.089-7.74 7.738-12.087 18.237-12.087 29.184v41.271zM842.176 448h-660.357v-206.362h660.357v206.362zM189.083 530.544h645.83l-88.447 206.362h-468.896l-88.446-206.362h-0.041zM284.999 282.911c-16.418 0-32.166 6.521-43.775 18.133-11.609 11.609-18.133 27.357-18.133 43.775 0 16.42 6.523 32.166 18.133 43.777 11.609 11.609 27.357 18.131 43.775 18.131 16.42 0 32.166-6.521 43.777-18.131 11.609-11.611 18.133-27.357 18.133-43.777 0-16.418-6.523-32.166-18.133-43.775-11.611-11.611-27.357-18.133-43.777-18.133v0zM738.995 282.911c-16.418 0-32.166 6.521-43.775 18.133-11.609 11.609-18.133 27.357-18.133 43.775 0 16.42 6.523 32.166 18.133 43.777 11.609 11.609 27.357 18.131 43.775 18.131 16.42 0 32.168-6.521 43.777-18.131s18.133-27.357 18.133-43.777c0-16.418-6.523-32.166-18.133-43.775-11.609-11.611-27.357-18.133-43.777-18.133v0z" />
<glyph unicode="&#xe90b;" glyph-name="ce-icon" d="M182.044 193.139h655.36v467.853c0 23.12-16.312 41.869-36.409 41.869h-582.541c-20.135 0-36.41-18.749-36.41-41.869v-395.037h655.36v-72.817h-655.36zM180.952 120.32h-108.134c-19.313 0-37.834 7.672-51.49 21.328s-21.328 32.178-21.328 51.491h109.227v510.087c0 39.977 32.768 72.454 72.49 72.454h656.052c40.012 0 72.452-32.694 72.452-72.454v-510.087h109.228c0-19.313-7.672-37.835-21.328-51.491s-32.178-21.328-51.491-21.328h-765.678z" />
<glyph unicode="&#xe90c;" glyph-name="changku" d="M941.774 630.855c0 0-407.038 286.32-410.305 288.496-25.031 17.42-25.031 17.42-51.149-1.088l-409.216-287.408c-13.059-8.706-14.149-28.302-4.357-42.457 9.792-14.146 29.386-18.509 41.356-9.793l28.297 20.683v-475.744c0-17.42 14.149-32.654 32.654-32.654s32.654 14.145 32.654 32.654v519.29l304.73 215.551 310.177-218.814v-517.115c0-17.42 14.149-32.654 32.654-32.654 17.405 0 32.643 14.146 32.643 32.654v470.295l21.774-14.145c13.059-8.716 30.475-4.354 41.356 9.793 10.88 15.244 7.614 33.751-3.268 42.457zM339.926 384.827c0-7.627 5.435-14.157 14.148-14.157h310.177c7.614 0 14.148 5.441 14.148 14.157v28.302c0 7.617-5.445 14.155-14.148 14.155h-310.177c-7.624 0-14.148-5.451-14.148-14.155v-28.302zM339.926 278.129c0-7.617 5.435-14.145 14.148-14.145h310.177c7.614 0 14.148 5.439 14.148 14.145v28.312c0 7.617-5.445 14.145-14.148 14.145h-310.177c-7.624 0-14.148-5.441-14.148-14.145v-28.312zM354.074 480.622h310.177c7.614 0 14.148 5.441 14.148 14.157v28.3c0 7.627-5.445 14.157-14.148 14.157h-310.177c-7.624 0-14.148-5.441-14.148-14.157v-28.3c0-6.53 5.435-14.157 14.148-14.157zM339.926 175.804c0-7.627 5.435-14.155 14.148-14.155h310.177c7.614 0 14.148 5.441 14.148 14.155v28.302c0 7.617-5.445 14.155-14.148 14.155h-310.177c-7.624 0-14.148-5.45-14.148-14.155v-28.302z" />
<glyph unicode="&#xe90d;" glyph-name="computing" d="M849.666 796.16h-675.367c-29.058-0.019-52.639-24.093-52.659-53.828v-588.646c0-29.665 23.62-53.846 52.659-53.846h675.367c29.057 0 52.697 24.142 52.697 53.846v588.685c-0.088 29.715-23.64 53.74-52.697 53.789zM843.772 736.305v-53.674h-663.571v53.674h663.571zM180.201 159.744v463.069h663.571v-463.051l-663.571-0.018zM605.258 564.33c0 0-129.776-363.991-137.535-373.365-7.758-9.372-30.597-21.168-44.493-11.401s-14.019 22.522-10.328 32.52l137.533 373.334c5.806 14.877 22.51 22.297 37.433 16.636 14.936-5.933 22.596-22.528 17.418-37.734l-0.029 0.010zM368.183 423.946l-57.035-58.292 57.035-58.337c11.098-11.825 10.963-30.286-0.33-41.947-2.658-2.74-5.837-4.925-9.347-6.431-3.51-1.503-7.285-2.296-11.104-2.329-3.82-0.035-7.606 0.69-11.143 2.13-3.537 1.442-6.754 3.57-9.462 6.263l-77.746 79.456c-5.517 5.657-8.6 13.246-8.589 21.148 0 7.94 3.103 15.553 8.589 21.146l77.746 79.438c11.477 10.772 29.475 10.346 40.43-0.956 11.061-11.274 11.495-29.483 0.956-41.288zM775.502 449.536c5.517-5.593 8.589-13.234 8.589-21.146 0-7.942-3.082-15.555-8.589-21.166l-77.746-79.505c-5.487-5.614-12.925-8.782-20.693-8.782-7.766 0-15.204 3.168-20.691 8.782-5.517 5.663-8.6 13.259-8.589 21.166 0 7.94 3.101 15.553 8.589 21.166l57.053 58.339-57.053 58.337c-3.643 3.756-6.257 8.387-7.586 13.447-1.331 5.061-1.333 10.377-0.008 15.438 2.716 10.346 10.627 18.414 20.711 21.166 10.144 2.763 20.984-0.193 28.305-7.737l77.707-79.505zM412.072 208.892c0 0 129.776 363.993 137.535 373.365s30.597 21.168 44.493 11.401 14.021-22.52 10.33-32.518l-137.535-373.336c-5.806-14.877-22.51-22.297-37.433-16.634-14.936 5.931-22.596 22.528-17.418 37.732l0.029-0.010z" />
<glyph unicode="&#xe90e;" glyph-name="dingwei" d="M511.778 891.7c-173.517 0-314.027-136.312-314.778-305.937 0-60.911 18.125-118.903 51.763-168.467l3.294-4.69 1.911-3.174 1.57-2.391c1.058-1.551 2.185-3.036 3.447-4.506l0.785-0.855 200.175-232.822c6.422-7.465 14.381-13.45 23.332-17.546 8.952-4.101 18.684-6.211 28.53-6.195 9.843 0.015 19.571 2.161 28.51 6.287s16.876 10.143 23.276 17.623l197.765 231.409c1.966 2.053 3.753 4.27 5.345 6.62l1.536 2.355c0.63 0.993 1.859 3.072 1.823 3.005 35.297 49.324 55.091 109.432 55.828 172.784 0 169.814-140.887 306.501-314.114 306.501zM511.778 823.433c135.969 0 245.844-106.598 245.844-237.824-0.461-48.377-15.816-95.437-43.981-134.775l-2.949-4.677-199-232.791-200.192 232.827-1.929 3.191-0.99 1.45c-28.235 39.261-43.39 86.416-43.315 134.775 0.598 131.499 110.182 237.824 246.511 237.824zM783.811 245.248c7.419 4.326 16.195 5.704 24.581 3.845s15.764-6.81 20.664-13.865l1.434-2.253 73.385-125.727c5.878-10.071 9.078-21.473 9.298-33.126 0.22-11.658-2.55-23.173-8.044-33.454-5.494-10.286-13.527-18.99-23.337-25.288-9.81-6.292-21.069-9.974-32.701-10.685l-4.557-0.123-666.044 3.635c-11.61 0.067-23.011 3.087-33.126 8.786s-18.611 13.88-24.682 23.777c-6.072 9.897-9.52 21.176-10.018 32.773-0.498 11.602 1.971 23.137 7.172 33.516l2.133 3.942 69.939 119.26c4.448 7.639 11.685 13.251 20.188 15.662s17.609 1.428 25.403-2.739c7.793-4.168 13.666-11.197 16.384-19.604 2.717-8.412 2.066-17.546-1.815-25.487l-1.263-2.355-69.939-119.26 666.042-3.635-73.385 125.727c-4.562 7.823-5.827 17.132-3.523 25.887 2.304 8.75 7.992 16.23 15.811 20.792zM512.036 716c-17.934-0.002-35.69-3.536-52.257-10.401s-31.618-16.924-44.297-29.606c-12.678-12.681-22.734-27.736-29.595-44.304s-10.39-34.324-10.388-52.257c0.003-17.932 3.537-35.688 10.401-52.254s16.925-31.618 29.606-44.296c12.681-12.679 27.736-22.735 44.304-29.595s34.324-10.392 52.256-10.386c36.214 0.005 70.948 14.394 96.553 40.006s39.987 60.345 39.982 96.561c-0.005 36.215-14.397 70.946-40.008 96.55s-60.344 39.987-96.558 39.983zM512.036 647.733c18.109-0.005 35.471-7.203 48.276-20.012 12.8-12.809 19.994-30.179 19.988-48.289s-7.204-35.476-20.014-48.279c-12.805-12.802-30.177-19.992-48.288-19.987s-35.476 7.203-48.279 20.012c-12.803 12.809-19.993 30.179-19.988 48.289s7.203 35.476 20.012 48.279c12.809 12.802 30.179 19.992 48.291 19.987z" />
<glyph unicode="&#xe90f;" glyph-name="diodes" d="M211.2 296.546c-17.067 17.068-17.067 42.668 0 59.734l61.866 61.866c8.534 8.534 19.2 12.8 29.868 12.8h55.466c10.666 0 21.334 4.268 29.866 12.8l125.868 125.868c8.532 8.532 12.8 19.2 12.8 29.866v55.466c0 10.666 4.266 21.334 12.8 29.866l61.866 61.868c17.066 17.066 42.666 17.066 59.734 0l151.466-151.466c17.066-17.068 17.066-42.668 0-59.734l-61.866-61.866c-8.534-8.534-19.2-12.8-29.868-12.8h-55.466c-10.666 0-21.334-4.268-29.866-12.8l-125.868-125.868c-8.532-8.532-12.8-19.2-12.8-29.866v-55.466c0-10.668-4.266-21.334-12.8-29.868l-61.866-61.866c-17.066-17.066-42.666-17.066-59.734 0l-151.466 151.466zM390.386 113.054c-17.066 0-34.132 6.4-44.8 19.2l-151.466 151.466c-25.6 25.6-25.6 66.134 0 89.6l64 61.866c12.8 12.8 27.734 19.2 44.8 19.2h55.466c6.4 0 10.668 2.134 14.934 6.4l125.868 125.868c4.266 4.266 6.398 8.532 6.398 14.932v55.468c0 17.066 6.4 34.132 19.2 44.8l61.868 61.866c23.466 23.467 66.132 23.467 89.6 0l151.466-151.466c25.6-25.6 25.6-66.134 0-89.6l-61.866-61.868c-12.8-12.8-27.734-19.2-44.8-19.2h-55.468c-6.4 0-10.666-2.132-14.932-6.4l-125.868-125.866c-4.266-4.266-6.398-8.534-6.398-14.934v-55.466c0-17.066-6.402-34.132-19.2-44.8l-61.868-61.866c-12.8-12.8-29.866-19.2-46.934-19.2zM226.12 311.454l151.466-151.468c8.534-8.532 21.334-8.532 29.868 0l61.866 61.868c4.268 4.266 6.4 8.532 6.4 14.932v55.468c0 17.066 6.4 34.132 19.2 44.8l125.866 125.866c12.8 12.8 27.734 19.2 44.8 19.2h55.468c6.4 0 10.666 2.134 14.932 6.4l61.868 61.866c8.532 8.534 8.532 21.334 0 29.868l-151.466 151.466c-8.534 8.534-21.334 8.534-29.868 0l-61.866-59.734c-4.266-4.266-6.4-8.532-6.4-14.932v-55.468c0-17.066-6.4-34.132-19.2-44.8l-125.868-125.866c-12.8-12.8-27.732-19.2-44.8-19.2h-55.466c-6.4 0-10.666-2.134-14.934-6.4l-61.866-61.866c-8.534-8.534-8.534-23.468 0-32zM149.333 64c-6.4 0-10.667 2.134-14.933 6.4-8.533 8.534-8.533 21.334 0 29.866l136.534 136.534c8.532 8.534 21.332 8.534 29.866 0s8.534-21.334 0-29.866l-136.533-136.534c-4.267-4.266-8.533-6.4-14.933-6.4zM738.134 652.8c-6.4 0-10.668 2.134-14.934 6.4-8.534 8.534-8.534 21.334 0 29.866l136.534 136.534c8.532 8.533 21.332 8.533 29.866 0s8.534-21.333 0-29.867l-136.534-136.533c-4.266-4.266-8.532-6.4-14.932-6.4z" />
<glyph unicode="&#xe910;" glyph-name="education" d="M278.274 514.847v104.575l-4.207-3.365-0.133-0.088c-13.58-9.048-30.988-5.917-40.352 6.951-9.062 12.456-6.093 29.573 6.322 40.018l0.465 0.383 240.21 173.508c19.272 13.911 44.952 14.051 63.379 0.359l0.487-0.369 240.396-173.627c12.986-8.972 15.878-26.624 7.137-39.49l-0.268-0.389-0.281-0.393c-9.052-12.44-26.708-15.876-39.328-7.655l-0.381 0.252-0.121 0.084-0.164 0.057-0.229 0.096-0.238 0.111c-0.778 0.385-1.432 0.985-1.882 1.729l-0.117 0.205-0.033 0.066-3.211 2.566v-105.583h98.202c29.69 0 54.159-23.867 55.122-53.324l0.023-0.895 0.008-0.905-0.002-353.495 0.113-0.012c14.019-1.786 24.662-13.308 25.098-27.746l0.012-0.438v-0.483c0-15.999-12.499-28.652-28.434-28.908h-767.25c-16.166 0-28.919 12.747-28.919 28.908 0 14.717 10.58 26.606 24.683 28.611l0.428 0.057 0.112 0.012v353.495c0 29.673 23.881 54.133 53.35 55.095l0.895 0.023 0.907 0.006h98.2zM557.74 201.914h-94.503v-94.452h94.503v94.452zM278.274 457.034h-94.503v-349.571h94.503v349.571zM510.984 788.927l-174.871-126.393c0.471-121.020 0.506-182.327 0.102-183.919l-0.102-371.153h69.282v107.225c0 26.935 23.892 45.67 54.231 46.043l0.922 0.006h101.898c29.823 0 54.651-18.713 55.144-45.242l0.008-0.807-0.002-107.225h70.291v552.602l-176.904 128.862zM745.728 457.034v-349.571h94.503v349.571h-94.503zM510.992 616.694c58.54 0 105.597-47.032 105.597-105.544 0-57.848-47.397-105.546-105.597-105.546-58.54 0-105.597 47.032-105.597 105.544s47.057 105.546 105.597 105.546zM510.992 559.886c-26.208 0-47.755-21.537-47.755-47.729s21.549-47.729 47.757-47.729c26.206 0 47.755 21.537 47.755 47.729s-21.549 47.729-47.757 47.729zM81.28 107.34h860.979v-58.7h-860.979v58.7z" />
<glyph unicode="&#xe911;" glyph-name="email" d="M849.408 145.464h-674.908c-15.427 0.010-30.218 6.144-41.127 17.055-10.909 10.906-17.042 25.697-17.055 41.124v465.038l345.716-268.010c14.28-11.085 31.843-17.101 49.92-17.101 18.078 0 35.64 6.016 49.919 17.101l345.718 268.010v-465.038c0-32.092-26.092-58.179-58.184-58.179zM849.408 727.282c5.724 0 11.146-1.094 16.384-2.63l-346.691-268.8c-2.043-1.597-4.557-2.464-7.147-2.464s-5.105 0.867-7.144 2.464l-346.694 268.8c5.237 1.536 10.659 2.63 16.384 2.63h674.908zM849.408 797.1h-674.908c-33.934-0.043-66.467-13.543-90.462-37.538s-37.495-56.528-37.538-90.462v-465.457c0-70.559 57.437-128 128-128h674.908c70.564 0 128 57.441 128 128v465.457c0 70.563-57.436 128-128 128z" />
<glyph unicode="&#xe912;" glyph-name="ems" d="M927.98 383.98v159.992c0 17.687-15.497 31.998-34.685 31.998h-93.309v244.209c0 20.686-14.373 37.372-31.998 37.372-17.75 0-31.998-16.687-31.998-37.372v-244.209h-447.977v244.209c0 20.686-14.313 37.372-32 37.372s-31.998-16.687-31.998-37.372v-244.209h-93.308c-19.187 0-34.686-14.311-34.686-31.998v-159.992c40.31-22 69.308-58.436 69.308-127.996 0-69.558-28.998-105.992-69.308-127.992v-159.992c0-17.689 15.499-32 34.686-32h762.587c19.188 0 34.687 14.311 34.687 32v159.992c-40.311 22-69.308 58.436-69.308 127.992 0 69.56 28.998 105.996 69.308 127.996zM177.173 399.978h669.654c-33.966-36.375-52.152-84.058-52.152-143.995 0-59.933 18.186-107.618 52.152-143.991h-669.654c33.967 36.372 52.154 84.058 52.154 143.991 0 59.937-18.186 107.62-52.154 143.995zM863.984-0.002h-703.966v79.997h703.966v-79.997zM863.984 431.976h-703.966v79.997h703.966v-79.997z" />
<glyph unicode="&#xe913;" glyph-name="gaming" d="M474.345 736.702v100.418h75.313v-100.418h213.387c26.374 0 52.49-5.196 76.857-15.288s46.506-24.887 65.155-43.536c18.649-18.649 33.444-40.788 43.536-65.155s15.288-50.483 15.288-76.857v-376.568c0-13.187-2.597-26.245-7.645-38.429-5.046-12.182-12.442-23.253-21.766-32.578-9.327-9.325-20.396-16.722-32.58-21.768s-25.24-7.643-38.427-7.643h-125.524c-13.187 0-26.245 2.597-38.429 7.643s-23.253 12.444-32.578 21.768c-9.325 9.325-16.722 20.396-21.768 32.578-5.046 12.184-7.643 25.242-7.643 38.429v25.104h-251.046v-25.104c0-13.187-2.597-26.245-7.643-38.429-5.046-12.182-12.444-23.253-21.768-32.578s-20.394-16.722-32.578-21.768c-12.184-5.046-25.242-7.643-38.429-7.643h-125.523c-13.187 0-26.245 2.597-38.428 7.643s-23.253 12.444-32.578 21.768c-9.325 9.325-16.722 20.396-21.768 32.578-5.046 12.184-7.644 25.242-7.644 38.429v376.568c0 26.374 5.195 52.49 15.288 76.857s24.886 46.506 43.536 65.155c18.649 18.649 40.789 33.444 65.156 43.536s50.483 15.288 76.857 15.288h213.389zM888.57 535.865c0 16.484-3.248 32.807-9.556 48.036s-15.555 29.067-27.21 40.722c-11.655 11.655-25.494 20.902-40.722 27.21s-31.551 9.556-48.036 9.556h-502.090c-16.484 0-32.807-3.248-48.036-9.556s-29.066-15.555-40.722-27.21c-11.656-11.655-20.902-25.494-27.21-40.722s-9.555-31.551-9.555-48.036v-276.148h753.136v276.148zM888.57 259.717v0zM712.837 259.717v-100.42c0-3.295 0.649-6.56 1.911-9.607 1.262-3.045 3.111-5.812 5.442-8.145 2.333-2.331 5.1-4.18 8.145-5.442s6.31-1.911 9.607-1.911h125.524c6.658 0 13.042 2.646 17.75 7.352 4.708 4.708 7.354 11.094 7.354 17.752v100.42h-175.733zM135.434 259.717v0zM311.165 259.717h-175.731v-100.42c0-6.658 2.645-13.044 7.353-17.752 4.708-4.706 11.093-7.352 17.751-7.352h125.523c3.297 0 6.562 0.649 9.607 1.911s5.814 3.111 8.145 5.442c2.331 2.333 4.18 5.1 5.442 8.145 1.262 3.047 1.911 6.312 1.911 9.607v100.42zM286.061 523.313v75.313h75.313v-75.313h75.313v-75.313h-75.313v-75.313h-75.313v75.313h-75.313v75.313h75.313zM662.628 498.209c-13.316 0-26.087 5.29-35.504 14.707-9.415 9.415-14.705 22.186-14.705 35.502s5.29 26.087 14.705 35.504c9.417 9.415 22.188 14.705 35.504 14.705s26.087-5.29 35.504-14.705c9.415-9.417 14.705-22.188 14.705-35.504s-5.29-26.087-14.705-35.502c-9.417-9.417-22.188-14.707-35.504-14.707v0zM763.046 372.687c-6.595-0.002-13.124 1.296-19.216 3.82s-11.629 6.222-16.29 10.883c-4.663 4.663-8.362 10.199-10.887 16.29-2.523 6.093-3.822 12.622-3.822 19.216s1.298 13.124 3.822 19.216c2.525 6.091 6.224 11.626 10.887 16.29 4.661 4.661 10.197 8.36 16.29 10.883s12.622 3.82 19.216 3.82c13.316-0.002 26.085-5.292 35.5-14.709 9.415-9.415 14.703-22.186 14.703-35.5 0-13.316-5.288-26.085-14.703-35.5-9.415-9.417-22.184-14.707-35.5-14.709v0z" />
<glyph unicode="&#xe914;" glyph-name="gowuche" d="M941.455 702.725c-11.624 14.185-28.306 22.287-46.497 22.287h-630.668l-17.181 109.923c-6.067 37.479-37.902 64.83-75.803 64.83h-62.16c-18.701 0-33.853-15.205-33.853-33.945 0.011-18.74 15.163-33.922 33.853-33.933h62.16c4.548 0 8.597-3.036 9.096-7.591l98.042-626.095c6.057-37.989 37.902-65.339 76.302-65.339h461.381c18.702 0 33.854 15.193 33.854 33.944 0 18.739-15.152 33.934-33.854 33.934h-460.871c-5.058 0-9.096 3.546-9.606 8.611l-15.661 98.774h506.859c28.806 0 53.563 20.768 59.131 49.138l57.6 296.834c3.539 16.712-1.009 34.444-12.124 48.628zM831.289 374.995h-511.916l-44.469 282.648h610.958l-54.573-282.648zM450.259 41.18c0-24.314-19.71-44.074-43.969-44.074s-43.958 19.76-43.958 44.074c0 24.314 19.7 44.074 43.958 44.074 24.258-0.51 43.969-19.76 43.969-44.074zM782.773 41.18c0-24.314-19.71-44.074-43.957-44.074-24.258 0-43.969 19.76-43.969 44.074s19.71 44.074 43.969 44.074c24.246-0.51 43.957-19.76 43.957-44.074z" />
<glyph unicode="&#xe915;" glyph-name="interface" d="M809.715 474.433c3.982-0.371 8.435 2.546 12.427 4.467 4.473 2.156 8.592 6.833 13.009 7.033 18.498 0.805 37.059 0.335 56.318 0.335v36.043c-12.047 0-23.395-1.241-34.346 0.327-12.826 1.829-29.772-8.792-37.655 11.047-0.5 1.259-5.489 0.833-8.411 1.032-4.745 0.335-9.497 0.544-15.784 0.889 0 12.308 0.281 23.482-0.1 34.639-0.255 7.666 2.948 10.431 10.423 10.385 5.18-0.036 10.533 0.853 15.513 2.321 6.351 1.867 12.31 6.461 18.617 6.825 17.027 0.978 34.145 0.335 51.581 0.335v35.681c-10.296 0-19.759-1.233-28.766 0.281-14.705 2.474-33.521-9.618-43.562 11.483-0.636 1.331-5.526 0.671-8.437 0.869-4.708 0.325-9.417 0.598-15.231 0.97-0.054 25.004 2.339 49.403-17.191 68.516-19.287 18.878-44.297 14.446-64.964 16.061-3.12 10.73-5.016 18.805-7.891 26.508-1.743 4.678-6.642 8.584-7.23 13.206-1.181 9.172-0.363 18.597-0.363 27.914 0 32.509 0 32.518-32.722 28.313-0.418-0.054-0.771-0.589-2.893-2.302 0-14.102 0.426-29.672-0.165-45.206-0.325-8.664 4.871-20.256-9.879-23.454-1.261-0.273-1.96-5.158-2.14-7.957-0.337-5.23-0.1-10.487-0.1-16.478h-44.988c-1.405 9.037-0.689 22.813-4.245 24.018-12.983 4.395-8.808 13.585-9.154 21.443-0.508 11.746-1.261 23.672 0.137 35.273 1.96 16.268-7.584 15.425-18.743 15.706-11.975 0.299-17.661-1.124-18.741-16.123-1.405-19.494 11.694-42.451-10.451-58.538-1.289-0.942-0.572-4.676-0.745-7.114-0.335-4.722-0.634-9.445-0.978-14.483h-43.173c-2.442 9.543-2.15 22.167-7.132 24.777-8.019 4.196-7.592 8.919-7.628 14.991-0.129 18.389-0.046 36.769-0.046 56.245-8.927 0-15.278-0.517-21.518 0.118-10.696 1.088-15.296-2.556-14.507-13.903 0.853-12.199 0.281-24.515 0.147-36.769-0.054-5.365 0.707-14.908-1.062-15.444-16.464-5.002-9.071-19.105-12.274-30.361h-42.6c-2.104 9.146-1.642 22.349-6.387 24.598-9.525 4.514-8.509 10.458-8.545 17.509-0.072 17.501-0.028 35.001-0.028 52.067-34.009 6.707-34.455 5.492-35.95-25.657-0.763-15.752 9.479-35.136-11.204-46.693-1.416-0.787-0.598-5.564-0.817-8.481-0.317-4.261-0.643-8.519-1.052-13.977-24.203-0.562-48.343 2.303-67.349-16.278-19.494-19.050-16.147-43.827-17-66.548-8.835-2.221-20.729-2.185-22.307-6.208-3.927-9.961-10.477-8.764-17.571-8.818-17.563-0.126-35.126-0.046-53.269-0.046v-35.689c18.397 0 36.441 0.209 54.485-0.145 4.618-0.092 12.846-1.251 13.218-3.136 2.359-11.981 11.376-7.804 18.362-9.445 3.773-0.887 9.551-4.457 9.788-7.222 1.060-12.425 0.462-24.988 0.462-36.342-10.523-2.584-18.777-4.080-26.652-6.734-5.144-1.741-9.607-7.214-14.56-7.467-17.98-0.934-36.042-0.373-54.884-0.373v-36.187c15.794 0 30.935 0.679 45.958-0.255 8.854-0.552 21.664 6.381 24.784-9.987 0.199-1.024 5.325-1.44 8.182-1.568 5.208-0.245 10.433-0.072 17.273-0.072 0-12.605-0.482-23.309 0.145-33.949 0.554-9.453-2.612-13.378-12.483-12.88-4.716 0.237-13.29-1.576-13.744-3.769-1.968-9.499-8.401-8.068-14.587-8.086-18.461-0.054-36.931-0.018-55.147-0.018v-35.816c12.446 0 23.841 1.132 34.908-0.299 12.492-1.622 28.911 8.527 36.569-10.75 0.498-1.267 5.461-0.851 8.363-1.060 4.765-0.343 9.535-0.552 15.976-0.916 0-12.153-0.381-23.319 0.126-34.439 0.39-8.565-3.393-10.856-11.348-11.047-5.244-0.126-10.613-2.285-15.585-4.359-5.062-2.112-9.598-7.268-14.542-7.531-17.98-0.934-36.042-0.371-54.567-0.371v-35.428c17.245 0 33.402 0.209 49.55-0.090 8.137-0.145 18.417 3.562 20.647-9.997 0.227-1.395 5.789-2.329 8.971-2.737 5.136-0.661 10.352-0.707 16.358-1.060 0.916-24.606-2.187-48.588 16.565-67.674 19.285-19.621 44.287-14.898 69.090-17.147 0-6.353-0.534-11.7 0.191-16.866 0.472-3.343 2.63-6.525 4.345-9.597 2.442-4.387 7.204-8.509 7.421-12.933 0.871-17.41 0.353-34.884 0.353-52.529h35.661c0 18.942-0.173 36.976 0.137 55.013 0.072 4.086 1.060 11.282 2.875 11.708 11.294 2.628 8.246 11.093 9.662 18.416 0.761 3.961 5.036 9.943 8.21 10.26 12.029 1.215 24.257 0.49 35.669 0.49 2.142-10.116 1.488-23.347 6.124-25.568 9.744-4.676 7.955-11.065 8.037-17.872 0.227-17.418 0.072-34.846 0.072-52.638h36.442c0 10.885-1.189 21.225 0.281 31.168 2.068 13.948-8.909 31.63 10.74 41.165 0.972 0.47 1.144 3.779 0.799 5.592-3.239 17.31 6.604 19.711 20.311 18.316 4.863-0.498 9.834-0.398 14.713-0.036 9.081 0.671 12.011-3.58 11.957-12.236-0.026-4.893 1.343-13.495 3.638-14.055 9.989-2.44 8.391-9.391 8.419-16.025 0.072-17.908 0.028-35.816 0.028-53.543h35.796c0 8.31-1.269 15.832 0.255 22.747 3.628 16.494-10.842 37.258 11.403 49.594 1.171 0.653 0.608 4.63 0.653 7.068 0.082 4.823 0.028 9.654 0.028 15.236h43.227c2.54-9.471 2.267-21.614 7.429-24.705 7.983-4.777 7.993-9.78 7.993-16.523 0.008-17.9 0-35.8 0-53.228h35.489c0 19.323-0.309 37.386 0.235 55.431 0.126 4.16 2.994 8.31 4.935 12.308 2.241 4.622 7.158 9.226 6.867 13.567-0.843 12.453 4.763 15.561 15.667 14.41 4.363-0.464 8.826-0.129 13.246 0 32.985 0.942 55.083 22.612 56.535 55.529 0.263 5.873 0.526 11.808 0.018 17.645-0.799 9.144 3.229 11.882 11.965 11.945 5.080 0.036 10.306 2.638 15.169 4.749 4.652 2.022 8.826 6.871 13.37 7.098 17.428 0.851 34.926 0.343 52.517 0.343v35.826c-19.287 0-37.402-0.163-55.511 0.129-4.162 0.062-11.72 1.241-11.911 2.672-1.632 12.308-10.887 8.112-17.854 9.842-3.974 0.988-9.814 5.066-10.132 8.22-1.199 11.991-0.482 24.162-0.482 37.838 7.166 0 12.483-0.353 17.717 0.137 3.030 0.289 8.318 1.622 8.509 3.036 1.57 11.583 10.234 8.565 17 8.664 17.5 0.263 34.999 0.090 52.871 0.090v36.027c-19.532 0-38.111-0.309-56.661 0.245-4.092 0.116-8.202 3.072-12.103 5.11-3.646 1.913-6.766 5.339-10.577 6.319-4.935 1.259-10.322 0.751-16.8 1.068 0 11.284 0.643 21.062-0.165 30.732-0.908 11.23 2.54 16.378 14.661 15.264zM740.424 256.44c-0.028-22.711-5.126-28.003-27.534-28.013-128.102-0.072-256.203-0.072-384.305-0.008-23.297 0.008-28.477 5.311-28.485 28.756-0.046 128.468-0.046 256.936 0 385.414 0.008 22.422 5.433 27.913 27.714 27.923 128.592 0.054 257.183 0.054 385.785-0.010 21.317-0.008 26.797-5.628 26.815-27.18 0.074-64.727 0.028-129.446 0.028-194.174 0.008-64.229 0.046-128.468-0.018-192.707zM688.688 633.82c-111.455-0.408-222.913-0.498-334.358 0.080-14.669 0.074-18.026-4.829-17.854-18.542 0.082-6.869 0.155-13.73 0.209-20.6 0.381-48.070 0.072-96.14 0.072-144.209 0-42.307 0.155-84.613 0.018-126.918-0.044-14.103-0.116-28.204-0.245-42.307-0.108-11.826 2.976-16.249 15.567-16.205 112.925 0.418 225.85 0.4 338.785 0.018 11.947-0.036 14.85 4.17 14.814 15.434-0.345 112.329-0.426 224.656 0.082 336.982 0.054 13.467-4.664 16.312-17.091 16.268zM406.528 534.952c-15.34 0.062-26.807 11.437-26.969 26.755-0.163 15.388 12.419 28.266 27.515 28.176 14.569-0.090 27.15-12.517 27.431-27.098 0.299-15.199-12.465-27.897-27.977-27.833zM336.778 450.516c0 48.070 0.309 96.148-0.072 144.209 0.373-48.070 0.072-96.14 0.072-144.209 0-42.307 0.155-84.613 0.018-126.92 0.137 42.307-0.018 84.613-0.018 126.92z" />
<glyph unicode="&#xe916;" glyph-name="lot-icon" d="M190.074 297.771h181.223c-4.967 36.476-8.132 75.509-9.148 116.168h-202.511c3.398-41.153 13.94-80.302 30.407-116.168h0.029zM223.879 239.686c49.068-68.325 121.173-116.616 203.033-135.975-18.733 34.736-34.414 81.318-45.713 135.975h-157.321zM823.886 297.771c16.468 35.866 27.010 75.015 30.407 116.168h-202.481c-0.914-38.862-3.967-77.643-9.148-116.168h181.222zM790.082 239.686h-157.351c-11.296-54.627-26.979-101.239-45.711-135.975 81.86 19.36 153.965 67.65 203.031 135.975h0.030zM427.753 297.771h158.455c4.124 35.866 6.736 75.015 7.608 116.168h-173.67c0.871-41.153 3.486-80.302 7.608-116.168v0zM436.206 239.686c15.828-87.94 41.617-145.209 70.774-145.209s54.947 57.27 70.774 145.209h-141.549zM159.667 472.022h202.482c1.016 40.659 4.18 79.691 9.148 116.168h-181.223c-16.822-36.655-27.113-75.969-30.407-116.168v0zM854.293 472.022c-3.293 40.199-13.583 79.513-30.407 116.168h-181.222c4.967-36.476 8.132-75.509 9.148-116.168h202.481zM420.145 472.022h173.67c-0.733 38.82-3.273 77.585-7.608 116.168h-158.455c-4.335-38.583-6.875-77.348-7.608-116.168v0zM223.879 646.275h157.321c11.298 54.627 26.979 101.241 45.713 135.975-81.85-19.366-153.943-67.656-203.003-135.975h-0.030zM790.082 646.275c-49.068 68.325-121.173 116.615-203.033 135.975 18.731-34.733 34.414-81.317 45.713-135.975h157.321zM436.206 646.275h141.549c-15.828 87.94-41.617 145.21-70.774 145.21s-54.947-57.271-70.774-145.21zM506.98 36.392c-224.553 0-406.588 182.035-406.588 406.588s182.035 406.588 406.588 406.588c224.553 0 406.588-182.035 406.588-406.588s-182.035-406.588-406.588-406.588z" />
<glyph unicode="&#xe917;" glyph-name="medical" d="M621.355 822.18v-326.019h273.435v-452.221h-778.24v778.24h504.805zM558.254 759.080h-378.604v-652.039h84.134v189.301h210.336v-189.301h84.134v652.039zM831.689 433.060h-210.334v-326.019h210.334v326.019zM411.019 233.243h-84.134v-126.202h84.134v126.202zM768.59 243.759v-63.101h-85.438v63.101h85.438zM768.59 369.959v-63.101h-85.438v63.101h85.438zM399.198 674.945v-73.617h73.617v-63.101h-73.617v-73.617h-63.101v73.617h-73.617v63.101h73.617v73.617h63.101zM61.22 106.791h141.58v-62.848h-141.58v62.848zM801.86 106.791h141.58v-62.848h-141.58v62.848z" />
<glyph unicode="&#xe918;" glyph-name="m-icon" d="M273.060 878.080h477.88c37.693 0 68.26-24.084 68.26-53.76v-752.64c0-29.676-30.566-53.76-68.26-53.76h-477.88c-37.693 0-68.26 24.084-68.26 53.76v752.64c0 29.676 30.566 53.76 68.26 53.76zM757.76 112.845v670.31c0 18.463-13.763 33.485-30.72 33.485h-430.080c-16.957 0-30.72-14.991-30.72-33.485v-670.31c0-18.493 13.763-33.485 30.72-33.485h430.080c16.957 0 30.72 14.991 30.72 33.485zM512 232.96c16.294 0 31.922-6.474 43.444-17.996s17.996-27.15 17.996-43.444c0-16.294-6.474-31.922-17.996-43.444s-27.15-17.996-43.444-17.996c-16.296 0-31.922 6.474-43.444 17.996s-17.996 27.15-17.996 43.444c0 16.294 6.474 31.922 17.996 43.444s27.148 17.996 43.444 17.996zM450.56 755.2h122.88c8.147 0 15.962-3.236 21.723-8.997s8.997-13.576 8.997-21.723c0-8.147-3.236-15.962-8.997-21.723s-13.576-8.997-21.723-8.997h-122.88c-8.147 0-15.962 3.236-21.723 8.997s-8.997 13.576-8.997 21.723c0 8.147 3.236 15.962 8.997 21.723s13.576 8.997 21.723 8.997v0z" />
<glyph unicode="&#xe919;" glyph-name="OandG" d="M642.894 857.6c19.837 0 38.863-7.88 52.89-21.907s21.907-33.052 21.907-52.889v-149.593c33.171 0 62.978-14.399 83.509-37.286 17.84-19.823 28.684-46.113 28.684-74.91v-186.991c0-4.96 1.97-9.716 5.478-13.222 3.506-3.508 8.262-5.478 13.222-5.478 4.958 0 9.716 1.97 13.222 5.478 3.506 3.506 5.476 8.262 5.476 13.222v149.592h74.797v-149.592c0-24.797-9.851-48.579-27.384-66.111-17.535-17.535-41.314-27.384-66.111-27.384s-48.579 9.849-66.111 27.384c-17.535 17.533-27.384 41.314-27.384 66.111v186.991c0 9.918-3.94 19.431-10.955 26.446-7.012 7.012-16.525 10.953-26.444 10.953v-448.778h37.399v-74.797h-673.169v74.797h37.398v673.168c0 19.837 7.88 38.862 21.907 52.889s33.052 21.907 52.889 21.907h448.779zM642.894 782.804h-448.779v-673.168h448.779v673.168zM343.708 221.829v-74.795h-112.196v74.795h112.196zM605.495 708.008v-299.186h-373.983v299.186h373.983zM530.698 633.211h-224.389v-149.594h224.389v149.594z" />
<glyph unicode="&#xe91a;" glyph-name="pcba" d="M892.342 477.258c16.091 0 29.258-13.167 29.258-29.258s-13.167-29.258-29.258-29.258h-43.885v-102.4h43.885c16.091 0 29.258-13.165 29.258-29.256 0-16.093-13.167-29.258-29.258-29.258h-43.885v-87.771c0-32.184-26.331-58.515-58.515-58.515h-87.771v-43.885c0-16.091-13.165-29.258-29.258-29.258-16.091 0-29.256 13.167-29.256 29.258v43.885h-102.4v-43.885c0-16.091-13.167-29.258-29.258-29.258s-29.258 13.167-29.258 29.258v43.885h-102.4v-43.885c0-16.091-13.165-29.258-29.256-29.258-16.093 0-29.258 13.167-29.258 29.258v43.885h-87.771c-32.184 0-58.515 26.331-58.515 58.515v87.771h-43.886c-16.091 0-29.257 13.165-29.257 29.258 0 16.091 13.166 29.256 29.257 29.256h43.886v102.4h-43.886c-16.091 0-29.257 13.167-29.257 29.258s13.166 29.258 29.257 29.258h43.886v102.4h-43.886c-16.091 0-29.257 13.165-29.257 29.256 0 16.093 13.166 29.258 29.257 29.258h43.886v87.771c0 32.184 26.331 58.515 58.515 58.515h87.771v43.886c0 16.091 13.165 29.257 29.258 29.257 16.091 0 29.256-13.166 29.256-29.257v-43.886h102.4v43.886c0 16.091 13.167 29.257 29.258 29.257s29.258-13.166 29.258-29.257v-43.886h102.4v43.886c0 16.091 13.165 29.257 29.256 29.257 16.093 0 29.258-13.166 29.258-29.257v-43.886h87.771c32.184 0 58.515-26.331 58.515-58.515v-87.771h43.885c16.091 0 29.258-13.165 29.258-29.258 0-16.091-13.167-29.256-29.258-29.256h-43.885v-102.4h43.885zM789.942 711.313c0 8.778-5.851 14.629-14.629 14.629h-526.627c-8.778 0-14.629-5.851-14.629-14.629v-526.627c0-8.778 5.851-14.629 14.629-14.629h526.627c8.778 0 14.629 5.851 14.629 14.629v526.627zM643.658 257.829h-263.315c-32.182 0-58.513 26.331-58.513 58.513v263.315c0 32.182 26.331 58.513 58.513 58.513h263.315c32.182 0 58.513-26.331 58.513-58.513v-263.315c0-32.182-26.331-58.513-58.513-58.513zM643.658 565.029c0 8.778-5.851 14.629-14.629 14.629h-234.058c-8.778 0-14.629-5.851-14.629-14.629v-234.058c0-8.778 5.851-14.629 14.629-14.629h234.058c8.778 0 14.629 5.851 14.629 14.629v234.058z" />
<glyph unicode="&#xe91b;" glyph-name="phone" d="M198.299 833.925c105.085 82.748 185.633-73.78 230.307-127.422 47.043-53.642 24.537-125.222-20.137-149.759-24.537-13.368-38.074-35.705 20.137-123.023 26.906-40.274 89.518-118.451 174.463-129.792 24.54-2.196 44.677 17.94 67.011 44.677 24.54 29.107 116.255-2.202 176.666-51.446 58.209-44.672 107.453-89.513 107.453-123.018-2.196-38.077-80.548-167.695-216.94-161.101-261.611 15.739-547.93 380.237-603.772 509.859-58.211 136.56-33.674 232.676 64.811 311.025zM198.299 520.869c55.842-109.651 301.887-431.679 543.364-447.244 42.47-2.202 75.976 20.137 96.113 35.702 26.906 20.137 38.077 38.077 51.446 64.814 6.769 11.167-44.677 53.642-87.148 82.744-35.707 26.906-84.951 55.844-102.886 38.077-13.368-13.368-42.476-51.446-91.715-53.642-89.349-2.371-214.572 129.618-254.846 214.568-29.106 60.411-20.137 114.054 15.737 136.391 42.474 26.906 29.106 53.642 11.169 82.748-49.243 78.348-98.486 149.928-147.728 114.223-35.705-26.906-58.211-53.642-69.38-102.885-6.6-38.074 8.969-109.654 35.874-165.496z" />
<glyph unicode="&#xe91c;" d="M188.353 430.765c0 19.44 15.919 35.344 35.377 35.344h566.021c19.456 0 35.376-15.904 35.376-35.344v-106.026h-636.774v106.026z" />
<glyph unicode="&#xe91d;" d="M825.129 306.867h-636.774c-10.613 0-17.688 7.070-17.688 17.671v106.028c0 30.039 22.995 53.013 53.065 53.013h566.021c30.069 0 53.063-22.974 53.063-53.013v-106.028c0-10.601-7.076-17.671-17.687-17.671zM206.043 342.209h601.397v88.357c0 10.601-7.076 17.671-17.687 17.671h-566.021c-10.613 0-17.689-7.070-17.689-17.671v-88.357z" />
<glyph unicode="&#xe91e;" d="M418.394 59.605c-10.613 0-17.689 7.070-17.689 17.671v247.396c0 10.603 7.076 17.671 17.689 17.671s17.687-7.068 17.687-17.671v-247.396c0-10.601-7.074-17.671-17.687-17.671zM595.275 59.605c-10.613 0-17.687 7.070-17.687 17.671v247.396c0 10.603 7.074 17.671 17.687 17.671s17.689-7.068 17.689-17.671v-247.396c0-10.601-7.076-17.671-17.689-17.671z" />
<glyph unicode="&#xe91f;" d="M506.693 784.118c-136.2 0-247.635-111.327-247.635-247.395v-70.684h495.269v70.684c0 136.068-111.435 247.395-247.633 247.395v0z" />
<glyph unicode="&#xe920;" d="M754.329 448.361h-495.269c-10.611 0-17.687 7.070-17.687 17.671v70.686c0 146.669 118.511 265.066 265.322 265.066s265.322-118.397 265.322-265.066v-70.686c0-10.601-7.076-17.671-17.689-17.671v0zM276.749 483.705h459.892v53.013c0 127.231-102.593 229.724-229.946 229.724-127.355 0-229.946-102.493-229.946-229.724v-53.013z" />
<glyph unicode="&#xe921;" d="M453.686 625.046c0-14.061 5.59-27.544 15.543-37.486 9.951-9.941 23.448-15.527 37.523-15.527 14.073 0 27.57 5.586 37.521 15.527 9.953 9.943 15.543 23.426 15.543 37.486s-5.59 27.544-15.543 37.486c-9.951 9.941-23.448 15.527-37.521 15.527-14.075 0-27.572-5.586-37.523-15.527-9.953-9.943-15.543-23.426-15.543-37.486z" />
<glyph unicode="&#xe922;" d="M506.754 554.357c-38.914 0-70.754 31.806-70.754 70.684 0 38.876 31.84 70.684 70.754 70.684s70.752-31.808 70.752-70.684c0-38.878-31.838-70.684-70.752-70.684zM506.754 660.384c-19.458 0-35.376-15.904-35.376-35.342s15.918-35.342 35.376-35.342c19.456 0 35.376 15.904 35.376 35.342s-15.92 35.342-35.376 35.342z" />
<glyph unicode="&#xe923;" glyph-name="sensor" d="M793.385 741.282c38.269-38.155 68.618-83.488 89.303-133.397 20.683-49.907 31.294-103.404 31.224-157.421 0.143-106.018-40.825-207.97-114.302-284.465l-5.975-6.104-40.681 40.564c32.872 32.816 58.936 71.792 76.698 114.694s26.869 88.885 26.803 135.311c0.135 91.028-34.969 178.58-97.965 244.342l-5.746 5.893 40.643 40.583zM211.225 741.607l40.603-40.621c-33.027-32.834-59.222-71.877-77.074-114.873-17.853-42.998-27.009-89.1-26.942-135.65-0.133-90.879 34.859-178.302 97.678-244.035l5.726-5.873-40.699-40.546c-38.162 38.143-68.418 83.432-89.038 133.273-20.619 49.839-31.196 103.253-31.125 157.182 0 110.69 44.012 214.494 120.852 291.143h0.020zM292.509 660.46l40.564-40.641c-22.339-22.189-40.056-48.58-52.132-77.647-12.073-29.068-18.265-60.237-18.215-91.708 0-62.376 23.96-120.85 66.076-164.993l4.749-4.841-40.45-40.755c-27.869 27.542-49.985 60.34-65.064 96.491-15.077 36.151-22.817 74.935-22.769 114.098 0 79.848 31.774 154.738 87.24 209.996zM712.063 660.173c27.602-27.511 49.491-60.199 64.412-96.188 14.918-35.989 22.572-74.567 22.52-113.521 0.1-76.147-29.214-149.398-81.838-204.485l-5.287-5.415-40.603 40.641c22.313 22.185 40.010 48.562 52.071 77.613 12.061 29.049 18.245 60.197 18.199 91.646 0.1 61.117-23.317 119.932-65.405 164.286l-4.712 4.821 40.643 40.603zM373.083 578.604l40.755-40.468c-11.501-11.521-20.619-25.194-26.829-40.237-6.212-15.045-9.395-31.162-9.369-47.435 0-31.648 11.854-61.344 32.77-84.092l3.791-3.943-40.603-40.641c-16.958 16.87-30.409 36.924-39.575 59.009-9.168 22.082-13.872 45.761-13.842 69.668-0.056 48.030 18.97 94.116 52.901 128.141zM631.067 578.721c16.836-16.854 30.182-36.854 39.277-58.86 9.098-22.006 13.764-45.588 13.736-69.397 0.056-45.827-17.271-89.973-48.493-123.549l-4.291-4.477-40.793 40.432c23.183 23.261 36.175 54.768 36.121 87.594 0.052 30.913-11.473 60.725-32.31 83.578l-3.965 4.17 40.719 40.508zM502.131 527.001c20.319 0 39.805-8.063 54.172-22.418 14.368-14.352 22.44-33.82 22.44-54.119 0-20.297-8.072-39.765-22.44-54.119-14.366-14.352-33.852-22.416-54.172-22.416-20.317 0-39.803 8.063-54.172 22.416-14.366 14.354-22.438 33.822-22.438 54.119 0 20.299 8.072 39.767 22.438 54.119 14.368 14.354 33.854 22.418 54.172 22.418z" />
<glyph unicode="&#xe924;" glyph-name="Vector" d="M994.338 30.43l-198.542 198.542c139.378 171.807 129.138 425.531-30.72 585.389-170.667 170.667-448.854 170.667-619.521 0s-170.666-448.856 0-619.522c85.333-85.333 197.404-128 309.476-128 97.849 0 195.698 32.427 275.912 97.849l198.542-198.542c9.102-9.102 20.48-13.084 32.427-13.084 11.378 0 23.324 4.551 32.427 13.084 17.636 17.636 17.636 46.080 0 64.284zM209.84 259.692c-135.396 135.398-135.396 355.558 0 490.953 67.698 67.129 156.444 101.262 245.191 101.262s177.494-33.564 245.192-101.262c135.396-135.396 135.396-355.556 0-490.953-134.827-135.396-354.987-135.396-490.383 0z" />
<glyph unicode="&#xe925;" glyph-name="zhekou" d="M889.076 398.859l-327.791-327.55c-28.594-28.481-66.518-44.142-106.826-44.142-40.416 0-78.372 15.672-106.848 44.142l-212.998 212.835c-28.551 28.533-44.26 66.453-44.26 106.776 0 40.335 15.72 78.255 44.26 106.778l327.952 327.722c28.539 28.523 66.486 44.228 106.848 44.228l2.384-0.021 244.296-9.022c28.047-0.343 54.418-11.414 74.324-31.173 19.908-19.77 31.172-46.041 31.762-74.005l10.823-243.954 0.301-1.224 0.021-3.421c0.322-40.183-15.806-79.551-44.249-107.967zM864.465 754.021c-0.224 13.021-5.465 25.282-14.753 34.509-9.245 9.181-21.528 14.309-34.574 14.416l-0.816 0.023-244.909 9.010c-24.954 0-48.395-9.708-66.036-27.343l-327.953-327.722c-17.652-17.635-27.358-41.064-27.358-65.994 0-24.928 9.706-48.367 27.358-65.992l212.977-212.835c17.589-17.581 41.038-27.258 66.046-27.258 24.931 0 48.393 9.687 66.056 27.29l327.749 327.519c16.857 16.842 26.714 39.894 27.326 63.643l-11.113 250.735zM640.065 474.687c-28.872 0-57.671 10.952-79.607 32.879-21.325 21.218-32.995 49.462-32.995 79.541 0 30.089 11.768 58.323 32.995 79.541 21.936 21.926 50.766 32.89 79.596 32.89s57.66-10.975 79.596-32.89c43.884-43.841 43.884-115.23 0-159.081-21.936-21.927-50.81-32.879-79.586-32.879zM678.838 625.864c-10.318 10.32-24.096 15.994-38.784 15.994s-28.464-5.674-38.784-15.983c-10.371-10.373-16.095-24.136-16.095-38.767 0-14.889 5.53-28.265 16.009-38.682l0.033-0.044 0.042-0.032c10.33-10.32 24.096-15.994 38.795-15.994 14.688 0 28.454 5.674 38.784 15.994 10.318 10.309 16.009 24.072 16.009 38.757 0 14.675-5.68 28.437-16.009 38.757z" />
<glyph unicode="&#xe926;" d="M188.353 430.765c0 19.44 15.919 35.344 35.377 35.344h566.021c19.456 0 35.376-15.904 35.376-35.344v-106.026h-636.774v106.026z" />
<glyph unicode="&#xe927;" d="M825.129 306.867h-636.774c-10.613 0-17.688 7.070-17.688 17.671v106.028c0 30.039 22.995 53.013 53.065 53.013h566.021c30.069 0 53.063-22.974 53.063-53.013v-106.028c0-10.601-7.076-17.671-17.687-17.671zM206.043 342.209h601.397v88.357c0 10.601-7.076 17.671-17.687 17.671h-566.021c-10.613 0-17.689-7.070-17.689-17.671v-88.357z" />
<glyph unicode="&#xe928;" d="M418.394 59.605c-10.613 0-17.689 7.070-17.689 17.671v247.396c0 10.603 7.076 17.671 17.689 17.671s17.687-7.068 17.687-17.671v-247.396c0-10.601-7.074-17.671-17.687-17.671zM595.275 59.605c-10.613 0-17.687 7.070-17.687 17.671v247.396c0 10.603 7.074 17.671 17.687 17.671s17.689-7.068 17.689-17.671v-247.396c0-10.601-7.076-17.671-17.689-17.671z" />
<glyph unicode="&#xe929;" d="M506.693 784.118c-136.2 0-247.635-111.327-247.635-247.395v-70.684h495.269v70.684c0 136.068-111.435 247.395-247.633 247.395z" />
<glyph unicode="&#xe92a;" d="M754.329 448.361h-495.269c-10.611 0-17.687 7.070-17.687 17.671v70.686c0 146.669 118.511 265.066 265.322 265.066s265.322-118.397 265.322-265.066v-70.686c0-10.601-7.076-17.671-17.689-17.671zM276.749 483.705h459.892v53.013c0 127.231-102.593 229.724-229.946 229.724-127.355 0-229.946-102.493-229.946-229.724v-53.013z" />
<glyph unicode="&#xe92b;" d="M453.686 625.046c0-14.061 5.59-27.544 15.543-37.486 9.951-9.941 23.448-15.527 37.523-15.527 14.073 0 27.57 5.586 37.521 15.527 9.953 9.943 15.543 23.426 15.543 37.486s-5.59 27.544-15.543 37.486c-9.951 9.941-23.448 15.527-37.521 15.527-14.075 0-27.572-5.586-37.523-15.527-9.953-9.943-15.543-23.426-15.543-37.486z" />
<glyph unicode="&#xe92c;" d="M506.754 554.357c-38.914 0-70.754 31.806-70.754 70.684 0 38.876 31.84 70.684 70.754 70.684s70.752-31.808 70.752-70.684c0-38.878-31.838-70.684-70.752-70.684zM506.754 660.384c-19.458 0-35.376-15.904-35.376-35.342s15.918-35.342 35.376-35.342c19.456 0 35.376 15.904 35.376 35.342s-15.92 35.342-35.376 35.342z" />
<glyph unicode="&#xe92d;" glyph-name="home-tab2" d="M815.669 482.761c4.061-0.379 8.604 2.599 12.675 4.559 4.563 2.2 8.763 6.969 13.269 7.172 18.868 0.823 37.8 0.342 57.444 0.342v36.766c-12.288 0-23.863-1.268-35.033 0.332-13.083 1.868-30.368-8.966-38.408 11.268-0.51 1.286-5.599 0.852-8.579 1.055-4.839 0.342-9.687 0.555-16.099 0.905 0 12.554 0.287 23.953-0.102 35.332-0.26 7.821 3.006 10.641 10.631 10.594 5.284-0.037 10.744 0.868 15.823 2.367 6.478 1.903 12.556 6.59 18.989 6.959 17.367 0.999 34.828 0.342 52.613 0.342v36.395c-10.502 0-20.154-1.257-29.342 0.287-15 2.523-34.191-9.808-44.433 11.713-0.649 1.36-5.636 0.684-8.606 0.887-4.803 0.334-9.605 0.61-15.536 0.989-0.055 25.506 2.386 50.391-17.535 69.888-19.673 19.255-45.183 14.735-66.263 16.38-3.183 10.947-5.116 19.182-8.049 27.040-1.778 4.77-6.775 8.754-7.375 13.469-1.204 9.355-0.371 18.969-0.371 28.472 0 33.159 0 33.168-33.376 28.879-0.426-0.056-0.786-0.601-2.951-2.348 0-14.384 0.434-30.266-0.168-46.11-0.332-8.838 4.968-20.661-10.076-23.924-1.286-0.277-1.999-5.26-2.183-8.117-0.344-5.333-0.102-10.695-0.102-16.806h-45.887c-1.434 9.216-0.702 23.268-4.329 24.497-13.242 4.483-8.985 13.857-9.337 21.872-0.518 11.98-1.286 24.146 0.139 35.979 1.999 16.593-7.735 15.734-19.118 16.020-12.214 0.305-18.014-1.146-19.116-16.446-1.434-19.884 11.928-43.3-10.66-59.709-1.315-0.961-0.584-4.77-0.76-7.257-0.342-4.815-0.647-9.632-0.997-14.772h-44.036c-2.49 9.734-2.193 22.612-7.274 25.274-8.18 4.28-7.743 9.096-7.78 15.29-0.131 18.757-0.047 37.504-0.047 57.37-9.105 0-15.583-0.527-21.948 0.12-10.91 1.109-15.602-2.607-14.797-14.181 0.87-12.443 0.287-25.006 0.15-37.504-0.055-5.472 0.721-15.207-1.083-15.752-16.794-5.103-9.253-19.487-12.519-30.968h-43.452c-2.146 9.327-1.675 22.796-6.515 25.088-9.716 4.604-8.679 10.668-8.716 17.86-0.074 17.851-0.029 35.701-0.029 53.108-34.689 6.841-35.144 5.602-36.669-26.171-0.778-16.067 9.669-35.84-11.428-47.626-1.444-0.804-0.61-5.675-0.834-8.653-0.324-4.344-0.655-8.69-1.073-14.254-24.687-0.573-49.31 2.347-68.696-16.603-19.884-19.431-16.47-44.706-17.34-67.881-9.011-2.265-21.144-2.228-22.753-6.332-4.006-10.158-10.686-8.94-17.923-8.995-17.914-0.129-35.828-0.045-54.335-0.045v-36.405c18.765 0 37.17 0.213 55.575-0.147 4.71-0.092 13.103-1.276 13.482-3.199 2.406-12.22 11.604-7.959 18.729-9.632 3.848-0.905 9.742-4.549 9.984-7.367 1.081-12.675 0.471-25.487 0.471-37.071-10.734-2.634-19.153-4.159-27.185-6.869-5.247-1.774-9.799-7.358-14.851-7.617-18.34-0.952-36.763-0.379-55.982-0.379v-36.913c16.11 0 31.553 0.694 46.877-0.258 9.031-0.563 22.097 6.509 25.28-10.187 0.203-1.044 5.431-1.47 8.346-1.599 5.313-0.25 10.641-0.074 17.619-0.074 0-12.859-0.492-23.777 0.147-34.63 0.565-9.642-2.664-13.644-12.732-13.136-4.811 0.24-13.556-1.608-14.019-3.846-2.007-9.687-8.569-8.227-14.879-8.245-18.83-0.055-37.67-0.018-56.25-0.018v-36.534c12.695 0 24.317 1.157 35.606-0.305 12.742-1.653 29.489 8.7 37.3-10.963 0.508-1.294 5.571-0.868 8.53-1.081 4.86-0.352 9.726-0.563 16.296-0.934 0-12.397-0.389-23.785 0.129-35.127 0.397-8.737-3.461-11.076-11.575-11.27-5.349-0.129-10.826-2.329-15.897-4.446-5.163-2.154-9.79-7.414-14.833-7.682-18.34-0.952-36.763-0.379-55.658-0.379v-36.135c17.59 0 34.070 0.213 50.541-0.092 8.3-0.15 18.785 3.631 21.060-10.197 0.231-1.423 5.904-2.376 9.15-2.791 5.239-0.676 10.559-0.721 16.685-1.081 0.934-25.098-2.23-49.56 16.896-69.028 19.671-20.013 45.173-15.198 70.472-17.49 0-6.48-0.545-11.934 0.195-17.203 0.481-3.412 2.683-6.656 4.432-9.789 2.49-4.475 7.348-8.681 7.569-13.193 0.889-17.758 0.36-35.58 0.36-53.58h36.375c0 19.321-0.176 37.718 0.139 56.113 0.074 4.17 1.081 11.51 2.933 11.944 11.52 2.681 8.411 11.315 9.855 18.784 0.776 4.041 5.136 10.142 8.374 10.465 12.27 1.239 24.742 0.498 36.383 0.498 2.185-10.316 1.518-23.812 6.246-26.077 9.939-4.77 8.114-11.287 8.198-18.229 0.231-17.768 0.074-35.545 0.074-53.69h37.171c0 11.102-1.212 21.649 0.287 31.791 2.109 14.225-9.087 32.262 10.955 41.986 0.991 0.481 1.167 3.856 0.815 5.704-3.303 17.658 6.736 20.107 20.718 18.684 4.96-0.51 10.031-0.408 15.008-0.037 9.263 0.684 12.251-3.652 12.196-12.481-0.027-4.991 1.37-13.765 3.711-14.338 10.189-2.486 8.559-9.576 8.587-16.343 0.074-18.268 0.029-36.534 0.029-54.616h36.512c0 8.477-1.294 16.151 0.26 23.204 3.701 16.824-11.059 38.003 11.631 50.584 1.194 0.666 0.621 4.725 0.666 7.211 0.084 4.917 0.029 9.845 0.029 15.54h44.091c2.591-9.66 2.312-22.049 7.578-25.201 8.143-4.872 8.153-9.974 8.153-16.851 0.008-18.258 0-36.516 0-54.292h36.198c0 19.708-0.315 38.132 0.24 56.537 0.129 4.243 3.054 8.479 5.034 12.554 2.286 4.714 7.301 9.411 7.004 13.838-0.86 12.702 4.858 15.872 15.981 14.698 4.45-0.471 9.003-0.129 13.511 0 33.645 0.963 56.185 23.065 57.666 56.639 0.268 5.99 0.537 12.046 0.018 18-0.815 9.327 3.293 12.118 12.204 12.184 5.181 0.037 10.512 2.689 15.473 4.844 4.745 2.062 9.003 7.008 13.638 7.238 17.777 0.87 35.625 0.352 53.567 0.352v36.542c-19.673 0-38.15-0.166-56.621 0.129-4.246 0.066-11.954 1.268-12.149 2.728-1.665 12.552-11.104 8.274-18.211 10.039-4.053 1.008-10.011 5.167-10.334 8.385-1.223 12.229-0.492 24.644-0.492 38.595 7.309 0 12.732-0.36 18.072 0.139 3.090 0.295 8.485 1.653 8.679 3.097 1.602 11.813 10.439 8.735 17.34 8.837 17.85 0.268 35.699 0.092 53.928 0.092v36.745c-19.923 0-38.873-0.313-57.795 0.25-4.174 0.121-8.366 3.133-12.345 5.214-3.719 1.95-6.902 5.446-10.789 6.443-5.034 1.286-10.529 0.768-17.136 1.092 0 11.508 0.655 21.484-0.168 31.347-0.926 11.454 2.591 16.703 14.954 15.567zM744.993 260.409c-0.029-23.167-5.229-28.566-28.084-28.574-130.664-0.074-261.327-0.074-391.991-0.010-23.763 0.010-29.047 5.417-29.055 29.331-0.047 131.039-0.047 262.076 0 393.122 0.008 22.87 5.542 28.473 28.269 28.482 131.164 0.055 262.326 0.055 393.501-0.008 21.744-0.010 27.333-5.741 27.351-27.724 0.076-66.023 0.029-132.037 0.029-198.058 0.008-65.516 0.047-131.037-0.018-196.561zM692.222 645.335c-113.684-0.416-227.371-0.508-341.045 0.084-14.963 0.074-18.387-4.927-18.211-18.913 0.084-7.008 0.158-14.006 0.213-21.012 0.268-33.876 0.201-67.752 0.135-101.63-0.031-15.155-0.061-30.31-0.061-45.466 0-14.971 0.020-29.942 0.039-44.913 0.035-28.183 0.072-56.363-0.020-84.543-0.045-14.383-0.119-28.768-0.25-43.151-0.111-12.065 3.035-16.577 15.878-16.529 115.184 0.426 230.367 0.408 345.561 0.018 12.186-0.037 15.147 4.252 15.11 15.743-0.352 114.573-0.434 229.147 0.084 343.72 0.055 13.738-4.758 16.64-17.433 16.593zM614.973 461.025l-86.262-129.024c-1.475-2.949-5.161-5.161-8.847-5.161-5.898 0-11.059 5.161-11.059 11.059v81.101h-67.83c-2.212 0-4.424 0.737-5.898 2.212-5.161 3.686-6.636 10.322-2.949 15.483l86.262 129.024c1.475 2.949 5.161 5.161 8.847 5.161 5.898 0 11.059-5.161 11.059-11.059v-81.101h67.83c2.212 0 4.424-0.737 5.898-2.212 5.161-3.686 6.636-10.322 2.949-15.483zM333.273 458.365c0 49.031 0.315 98.073-0.074 147.096 0.381-49.031 0.074-98.064 0.074-147.096 0-43.151 0.158-86.305 0.018-129.456 0.139 43.151-0.018 86.305-0.018 129.456z" />
<glyph unicode="&#xe92e;" d="M344.148 306.942c-27.552 0-49.869 19.106-49.869 42.641v70.517h99.764v-70.517c-0.027-23.558-22.344-42.641-49.895-42.641z" />
<glyph unicode="&#xe92f;" d="M344.142 38.406c-13.406 0-24.263 9.284-24.263 20.746v256.557h48.525v-256.557c0-11.463-10.856-20.746-24.263-20.746z" />
<glyph unicode="&#xe930;" d="M516.289 306.942c-27.552 0-49.869 19.106-49.869 42.641v70.517h99.764v-70.517c-0.029-23.558-22.344-42.641-49.895-42.641z" />
<glyph unicode="&#xe931;" d="M516.282 38.406c-13.406 0-24.263 9.284-24.263 20.746v256.557h48.525v-256.557c0-11.463-10.856-20.746-24.263-20.746z" />
<glyph unicode="&#xe932;" d="M688.409 306.942c-27.552 0-49.869 19.106-49.869 42.641v70.517h99.764v-70.517c0-23.558-22.344-42.641-49.895-42.641z" />
<glyph unicode="&#xe933;" d="M688.402 38.416c-13.406 0-24.263 9.284-24.263 20.746v256.557h48.525v-256.557c0.027-11.463-10.856-20.746-24.263-20.746z" />
<glyph unicode="&#xe934;" d="M795.738 584.684h-571.818v156.955c0 64.024 51.937 115.962 115.962 115.962h339.859c64.057 0 115.962-51.938 115.962-115.962v-156.955h0.035z" />
<glyph unicode="&#xe935;" d="M815.26 470.331h-610.83c-33.707 0-61.070 27.329-61.070 61.069s27.362 61.069 61.070 61.069h610.83c33.741 0 61.069-27.361 61.069-61.069 0-33.741-27.329-61.069-61.069-61.069z" />
<glyph unicode="&#xe936;" d="M509.835 634.939c31.576 0 57.174 25.598 57.174 57.176 0 31.576-25.598 57.174-57.174 57.174-31.578 0-57.176-25.598-57.176-57.174 0-31.578 25.598-57.176 57.176-57.176z" />
<glyph unicode="&#xe937;" glyph-name="home-tab4" d="M464.212 564.214c26.941 56.797 42.16 85.197 45.511 85.197 3.348 0 18.53-28.4 45.511-85.197h300.37v-443.894h-691.763v443.894h300.372zM359.574 272.509c39.684 0 71.797 31.238 71.797 69.757 0 38.521-32.15 69.759-71.797 69.759-39.649 0-71.762-31.238-71.762-69.759 0-38.519 32.113-69.757 71.762-69.757zM587.999 412.025v-139.516h45.693v139.516h-45.693zM679.385 412.025v-139.516h45.656v139.516h-45.656zM375.847 669.69c-8.081-4.26-28.944 1.348-36.954 15.692-7.465 13.472-2.658 35.461 4.807 39.686 104.274 67.319 221.655 67.319 336.486 0.983 5.462-2.404 7.064-21.518 0-35.828-6.808-13.834-22.1-23.009-27.306-20.533-104.856 65.935-182.043 64.952-277.033 0z" />
<glyph unicode="&#xe938;" glyph-name="home-tab5" d="M737.446 857.6h-452.542c-66.855 0-121.063-54.209-121.063-121.063v-166.719c0-66.869 54.209-121.063 121.063-121.063h452.542c66.871 0 121.063 54.211 121.063 121.063v166.719c0.016 66.855-54.192 121.063-121.063 121.063zM795.058 733.055c0-35.561-28.838-64.399-64.399-64.399h-438.485c-35.561 0-64.399 28.838-64.399 64.399s28.838 64.399 64.399 64.399h438.501c35.561 0 64.383-28.822 64.383-64.399zM384.52 765.26h-30.779v-63.451h30.779v63.451zM479.22 764.78h-30.779v-63.453h30.779v63.453zM573.94 764.78h-30.779v-63.453h30.779v63.453zM668.639 765.26h-30.779v-63.451h30.779v63.451zM384.035 41.388c-16.738 0-30.314 13.576-30.314 30.314v345.987h60.613v-346.003c0.014-16.736-13.562-30.298-30.298-30.298zM637.854 38.398c-16.738 0-30.314 13.576-30.314 30.314v345.987h60.613v-346.003c0-16.736-13.56-30.298-30.298-30.298z" />
<glyph unicode="&#xe939;" glyph-name="home-tab6" d="M742.4 724.48h-460.8c-25.416 0-46.080-20.593-46.080-46.080v-460.8c0-25.416 20.664-46.080 46.080-46.080h460.8c25.416 0 46.080 20.664 46.080 46.080v460.8c0 25.487-20.664 46.080-46.080 46.080zM696.32 275.2c0-6.337-5.183-11.52-11.52-11.52h-345.6c-6.337 0-11.52 5.183-11.52 11.52v345.6c0 6.337 5.183 11.52 11.52 11.52h345.6c6.337 0 11.52-5.183 11.52-11.52v-345.6zM304.64 816.64h-43.201c-1.583 0-2.879-1.296-2.879-2.88v-63.361c0-1.583 1.296-2.879 2.879-2.879h40.321c1.583 0 2.879 1.296 2.879 2.879v66.241zM396.8 816.64h-43.201c-1.583 0-2.879-1.296-2.879-2.88v-63.361c0-1.583 1.296-2.879 2.879-2.879h40.321c1.583 0 2.879 1.296 2.879 2.879v66.241zM488.96 816.64h-43.201c-1.583 0-2.879-1.296-2.879-2.88v-63.361c0-1.583 1.296-2.879 2.879-2.879h40.321c1.583 0 2.879 1.296 2.879 2.879v66.241zM581.12 816.64h-43.201c-1.583 0-2.879-1.296-2.879-2.88v-63.361c0-1.583 1.296-2.879 2.879-2.879h40.321c1.583 0 2.879 1.296 2.879 2.879v66.241zM673.28 816.64h-43.201c-1.583 0-2.879-1.296-2.879-2.88v-63.361c0-1.583 1.296-2.879 2.879-2.879h40.321c1.583 0 2.879 1.296 2.879 2.879v66.241zM765.44 816.64h-43.201c-1.583 0-2.879-1.296-2.879-2.88v-63.361c0-1.583 1.296-2.879 2.879-2.879h40.321c1.583 0 2.879 1.296 2.879 2.879v66.241zM304.64 148.48h-43.201c-1.583 0-2.879-1.296-2.879-2.879v-63.361c0-1.583 1.296-2.879 2.879-2.879h40.321c1.583 0 2.879 1.296 2.879 2.879v66.241zM396.8 148.48h-43.201c-1.583 0-2.879-1.296-2.879-2.879v-63.361c0-1.583 1.296-2.879 2.879-2.879h40.321c1.583 0 2.879 1.296 2.879 2.879v66.241zM488.96 148.48h-43.201c-1.583 0-2.879-1.296-2.879-2.879v-63.361c0-1.583 1.296-2.879 2.879-2.879h40.321c1.583 0 2.879 1.296 2.879 2.879v66.241zM581.12 148.48h-43.201c-1.583 0-2.879-1.296-2.879-2.879v-63.361c0-1.583 1.296-2.879 2.879-2.879h40.321c1.583 0 2.879 1.296 2.879 2.879v66.241zM673.28 148.48h-43.201c-1.583 0-2.879-1.296-2.879-2.879v-63.361c0-1.583 1.296-2.879 2.879-2.879h40.321c1.583 0 2.879 1.296 2.879 2.879v66.241zM765.44 148.48h-43.201c-1.583 0-2.879-1.296-2.879-2.879v-63.361c0-1.583 1.296-2.879 2.879-2.879h40.321c1.583 0 2.879 1.296 2.879 2.879v66.241zM880.64 701.44h-66.241c-1.583 0-2.879-1.296-2.879-2.879v-40.321c0-1.583 1.296-2.879 2.879-2.879h63.361c1.583 0 2.879 1.296 2.879 2.879v43.201zM880.64 609.28h-66.241c-1.583 0-2.879-1.296-2.879-2.879v-40.321c0-1.583 1.296-2.879 2.879-2.879h63.361c1.583 0 2.879 1.296 2.879 2.879v43.201zM880.64 517.12h-66.241c-1.583 0-2.879-1.296-2.879-2.879v-40.321c0-1.583 1.296-2.879 2.879-2.879h63.361c1.583 0 2.879 1.296 2.879 2.879v43.201zM880.64 424.96h-66.241c-1.583 0-2.879-1.296-2.879-2.879v-40.321c0-1.583 1.296-2.879 2.879-2.879h63.361c1.583 0 2.879 1.296 2.879 2.879v43.201zM880.64 332.8h-66.241c-1.583 0-2.879-1.296-2.879-2.879v-40.321c0-1.583 1.296-2.879 2.879-2.879h63.361c1.583 0 2.879 1.296 2.879 2.879v43.201zM880.64 240.64h-66.241c-1.583 0-2.879-1.296-2.879-2.879v-40.321c0-1.583 1.296-2.879 2.879-2.879h63.361c1.583 0 2.879 1.296 2.879 2.879v43.201zM212.48 701.44h-66.24c-1.584 0-2.88-1.296-2.88-2.879v-40.321c0-1.583 1.296-2.879 2.88-2.879h63.361c1.583 0 2.879 1.296 2.879 2.879v43.201zM212.48 609.28h-66.24c-1.584 0-2.88-1.296-2.88-2.879v-40.321c0-1.583 1.296-2.879 2.88-2.879h63.361c1.583 0 2.879 1.296 2.879 2.879v43.201zM212.48 517.12h-66.24c-1.584 0-2.88-1.296-2.88-2.879v-40.321c0-1.583 1.296-2.879 2.88-2.879h63.361c1.583 0 2.879 1.296 2.879 2.879v43.201zM212.48 424.96h-66.24c-1.584 0-2.88-1.296-2.88-2.879v-40.321c0-1.583 1.296-2.879 2.88-2.879h63.361c1.583 0 2.879 1.296 2.879 2.879v43.201zM212.48 332.8h-66.24c-1.584 0-2.88-1.296-2.88-2.879v-40.321c0-1.583 1.296-2.879 2.88-2.879h63.361c1.583 0 2.879 1.296 2.879 2.879v43.201zM212.48 240.64h-66.24c-1.584 0-2.88-1.296-2.88-2.879v-40.321c0-1.583 1.296-2.879 2.88-2.879h63.361c1.583 0 2.879 1.296 2.879 2.879v43.201zM650.24 583.361v-270.721c0-1.583-1.296-2.879-2.879-2.879h-270.721c-1.583 0-2.879 1.296-2.879 2.879v270.721c0 1.583 1.296 2.879 2.879 2.879h270.721c1.583 0 2.879-1.296 2.879-2.879z" />
<glyph unicode="&#xe93a;" glyph-name="home-tab7" d="M512 806.4c-197.935 0-358.4-160.465-358.4-358.4s160.465-358.4 358.4-358.4c197.935 0 358.4 160.465 358.4 358.4s-160.465 358.4-358.4 358.4zM512 153.6c-162.593 0-294.4 131.807-294.4 294.4s131.807 294.4 294.4 294.4c162.593 0 294.4-131.807 294.4-294.4s-131.807-294.4-294.4-294.4zM652.8 480h-108.8v160c0 8.487-3.371 16.626-9.372 22.628-6.003 6.001-14.141 9.372-22.628 9.372s-16.626-3.371-22.628-9.372c-6.001-6.003-9.372-14.141-9.372-22.628v-192c0-8.487 3.371-16.626 9.372-22.628 6.003-6.001 14.141-9.372 22.628-9.372h140.8c8.487 0 16.626 3.371 22.628 9.372 6.001 6.003 9.372 14.141 9.372 22.628s-3.371 16.626-9.372 22.628c-6.003 6.001-14.141 9.372-22.628 9.372z" />
<glyph unicode="&#xe93b;" glyph-name="home-tab8" d="M828.16 423.68h-231.041v-36.481c0-26.751-21.887-48.64-48.64-48.64h-72.958c-26.753 0-48.64 21.889-48.64 48.64v36.481h-231.041c-13.376 0-24.32 10.945-24.32 24.32s10.944 24.32 24.32 24.32h231.041v36.481c0 26.751 21.887 48.64 48.64 48.64h72.958c26.753 0 48.64-21.889 48.64-48.64v-36.481h231.041c13.375 0 24.32-10.945 24.32-24.32s-10.945-24.32-24.32-24.32zM828.16 654.721h-389.12v-36.481c0-26.751-21.889-48.64-48.64-48.64h-72.96c-26.751 0-48.64 21.889-48.64 48.64v36.481h-72.96c-13.376 0-24.32 10.942-24.32 24.318 0 13.378 10.944 24.322 24.32 24.322h72.96v36.479c0 26.752 21.889 48.64 48.64 48.64h72.96c26.751 0 48.64-21.888 48.64-48.64v-36.479h389.12c13.375 0 24.32-10.945 24.32-24.322 0-13.375-10.945-24.318-24.32-24.318zM195.84 241.279h401.279v36.481c0 26.751 21.889 48.64 48.64 48.64h72.962c26.751 0 48.64-21.889 48.64-48.64v-36.481h60.799c13.375 0 24.32-10.942 24.32-24.318 0-13.378-10.945-24.322-24.32-24.322h-60.799v-36.479c0-26.753-21.889-48.64-48.64-48.64h-72.962c-26.751 0-48.64 21.887-48.64 48.64v36.479h-401.279c-13.376 0-24.32 10.945-24.32 24.322 0 13.375 10.944 24.318 24.32 24.318z" />
<glyph unicode="&#xe93c;" glyph-name="home-tab9" d="M728.553 215.601c-5.315-3.985-11.514-5.978-18.6-5.978-8.858 0-16.495 3.211-22.917 9.632-6.42 6.423-9.632 14.062-9.632 22.917 0 9.742 3.764 17.934 11.293 24.578 0.442 0.442 0.887 0.774 1.329 0.995s0.885 0.555 1.327 0.997l0.666 0.664c12.399 8.415 23.912 18.379 34.542 29.893 10.627 11.514 19.927 24.023 27.898 37.53s14.17 27.898 18.6 43.176c4.428 15.278 6.642 31.109 6.642 47.495 0 33.212-8.413 63.545-25.242 91.001-16.828 27.458-37.863 50.041-63.105 67.754-9.298 6.644-13.949 15.499-13.949 26.571 0 8.858 3.211 16.497 9.632 22.917 6.423 6.42 14.060 9.632 22.917 9.632 7.528 0 14.17-2.435 19.927-7.307 16.386-11.514 31.664-24.91 45.834-40.188s26.348-31.883 36.534-49.818c10.185-17.936 18.156-37.087 23.912-57.459 5.757-20.369 8.634-41.404 8.634-63.103 0-22.143-2.877-43.399-8.634-63.769s-13.838-39.635-24.244-57.79c-10.408-18.156-22.696-34.873-36.866-50.151-14.172-15.278-29.671-28.674-46.498-40.188zM691.354 513.851c9.3-12.843 16.718-25.795 22.254-38.859s8.303-28.895 8.303-47.493c0-17.713-2.877-33.657-8.634-47.827s-13.064-27.013-21.922-38.527c-3.541-4.87-7.305-9.189-11.291-12.954-3.985-3.762-9.079-5.644-15.278-5.644-7.971 0-14.725 2.877-20.261 8.634s-8.303 12.622-8.303 20.593c0 3.541 0.664 7.084 1.993 10.627h-0.664c2.214 4.872 4.87 9.521 7.971 13.949 3.099 4.43 6.089 8.968 8.966 13.617 2.879 4.651 5.315 9.964 7.307 15.944 1.993 5.978 2.99 13.173 2.99 21.588 0 7.971-0.997 14.944-2.99 20.922s-4.428 11.403-7.307 16.275c-2.877 4.87-5.868 9.521-8.966 13.949-3.101 4.428-5.536 9.079-7.307 13.949-1.329 3.101-1.993 6.644-1.993 10.629 0 7.971 2.767 14.834 8.303 20.591s12.29 8.636 20.261 8.636c6.199 0 11.293-1.882 15.278-5.646s7.75-8.081 11.291-12.954zM476.801 119.286c-22.585 20.369-46.498 41.626-71.739 63.769-25.242 22.141-48.712 42.512-70.41 61.11-25.242 21.256-50.483 42.291-75.725 63.105-4.872-0.444-9.742-0.666-14.615-0.666-3.985-0.442-8.192-0.664-12.62-0.664h-11.293c-11.956 0-21.699 3.654-29.227 10.961-7.528 7.305-11.292 16.052-11.292 26.237v167.391h0.664l-0.664 0.666c0 12.399 3.875 22.583 11.624 30.554 7.75 7.973 17.381 11.958 28.895 11.958h37.861c40.741 34.54 77.718 65.538 110.932 92.996 14.17 11.956 28.119 23.581 41.847 34.871 13.728 11.293 26.128 21.59 37.198 30.888 11.071 9.3 20.371 17.050 27.9 23.249 7.526 6.201 12.177 9.964 13.949 11.293 13.285 9.743 24.023 14.171 32.215 13.285 8.194-0.886 14.615-4.871 19.263-11.956 4.651-7.086 7.86-15.72 9.632-25.905 1.772-10.187 2.658-19.487 2.658-27.9v-538.044c0-8.413-1.55-17.381-4.651-26.903-3.099-9.521-7.86-17.050-14.281-22.583-6.42-5.536-14.504-7.862-24.246-6.975-9.742 0.885-21.033 7.307-33.876 19.263z" />
</font>
</defs>
</svg>
